  0
SECTION
  2
HEADER
  9
$ACADVER
  1
AC1018
  9
$ACADMAINTVER
 70
    39
  9
$DWGCODEPAGE
  3
ANSI_932
  9
$INSBASE
 10
0.0
 20
0.0
 30
0.0
  9
$EXTMIN
 10
-5.340179651835569
 20
-4.935412335670747
 30
0.0
  9
$EXTMAX
 10
535.3535703228908
 20
372.2174979972466
 30
0.0
  9
$LIMMIN
 10
-39.9904261883
 20
-15.7508025
  9
$LIMMAX
 10
336.9753261883
 20
225.7615025
  9
$ORTHOMODE
 70
     0
  9
$REGENMODE
 70
     1
  9
$FILLMODE
 70
     1
  9
$QTEXTMODE
 70
     0
  9
$MIRRTEXT
 70
     1
  9
$LTSCALE
 40
8.0
  9
$ATTMODE
 70
     1
  9
$TEXTSIZE
 40
5.0
  9
$TRACEWID
 40
0.05
  9
$TEXTSTYLE
  7
EXTFONT
  9
$CLAYER
  8
1
  9
$CELTYPE
  6
BYLAYER
  9
$CECOLOR
 62
   256
  9
$CELTSCALE
 40
1.0
  9
$DISPSILH
 70
     0
  9
$DIMSCALE
 40
1.5
  9
$DIMASZ
 40
2.0
  9
$DIMEXO
 40
1.0
  9
$DIMDLI
 40
5.0
  9
$DIMRND
 40
0.0
  9
$DIMDLE
 40
0.0
  9
$DIMEXE
 40
1.0
  9
$DIMTP
 40
0.0
  9
$DIMTM
 40
0.0
  9
$DIMTXT
 40
3.0
  9
$DIMCEN
 40
0.09
  9
$DIMTSZ
 40
0.0
  9
$DIMTOL
 70
     0
  9
$DIMLIM
 70
     0
  9
$DIMTIH
 70
     0
  9
$DIMTOH
 70
     0
  9
$DIMSE1
 70
     0
  9
$DIMSE2
 70
     0
  9
$DIMTAD
 70
     1
  9
$DIMZIN
 70
     8
  9
$DIMBLK
  1

  9
$DIMASO
 70
     1
  9
$DIMSHO
 70
     0
  9
$DIMPOST
  1

  9
$DIMAPOST
  1

  9
$DIMALT
 70
     0
  9
$DIMALTD
 70
     2
  9
$DIMALTF
 40
25.4
  9
$DIMLFAC
 40
1.0
  9
$DIMTOFL
 70
     1
  9
$DIMTVP
 40
1.0
  9
$DIMTIX
 70
     1
  9
$DIMSOXD
 70
     1
  9
$DIMSAH
 70
     0
  9
$DIMBLK1
  1

  9
$DIMBLK2
  1

  9
$DIMSTYLE
  2
KIHONN
  9
$DIMCLRD
 70
     0
  9
$DIMCLRE
 70
     0
  9
$DIMCLRT
 70
     0
  9
$DIMTFAC
 40
0.3333333333333333
  9
$DIMGAP
 40
1.0
  9
$DIMJUST
 70
     0
  9
$DIMSD1
 70
     0
  9
$DIMSD2
 70
     0
  9
$DIMTOLJ
 70
     1
  9
$DIMTZIN
 70
     0
  9
$DIMALTZ
 70
     0
  9
$DIMALTTZ
 70
     0
  9
$DIMUPT
 70
     0
  9
$DIMDEC
 70
     4
  9
$DIMTDEC
 70
     4
  9
$DIMALTU
 70
     2
  9
$DIMALTTD
 70
     2
  9
$DIMTXSTY
  7
EXTFONT
  9
$DIMAUNIT
 70
     0
  9
$DIMADEC
 70
     0
  9
$DIMALTRND
 40
0.0
  9
$DIMAZIN
 70
     0
  9
$DIMDSEP
 70
    46
  9
$DIMATFIT
 70
     3
  9
$DIMFRAC
 70
     0
  9
$DIMLDRBLK
  1

  9
$DIMLUNIT
 70
     2
  9
$DIMLWD
 70
    -2
  9
$DIMLWE
 70
    -2
  9
$DIMTMOVE
 70
     2
  9
$LUNITS
 70
     2
  9
$LUPREC
 70
     4
  9
$SKETCHINC
 40
0.1
  9
$FILLETRAD
 40
0.0
  9
$AUNITS
 70
     0
  9
$AUPREC
 70
     0
  9
$MENU
  1
ACAD
  9
$ELEVATION
 40
0.0
  9
$PELEVATION
 40
0.0
  9
$THICKNESS
 40
0.0
  9
$LIMCHECK
 70
     0
  9
$CHAMFERA
 40
0.0
  9
$CHAMFERB
 40
0.0
  9
$CHAMFERC
 40
0.0
  9
$CHAMFERD
 40
0.0
  9
$SKPOLY
 70
     0
  9
$TDCREATE
 40
2450497.000000000
  9
$TDUCREATE
 40
2450496.625000000
  9
$TDUPDATE
 40
2455401.416975903
  9
$TDUUPDATE
 40
2455401.041975903
  9
$TDINDWG
 40
3.0572834491
  9
$TDUSRTIMER
 40
3.0572834491
  9
$USRTIMER
 70
     1
  9
$ANGBASE
 50
0.0
  9
$ANGDIR
 70
     0
  9
$PDMODE
 70
    65
  9
$PDSIZE
 40
0.2
  9
$PLINEWID
 40
0.0
  9
$SPLFRAME
 70
     0
  9
$SPLINETYPE
 70
     6
  9
$SPLINESEGS
 70
     8
  9
$HANDSEED
  5
16D30
  9
$SURFTAB1
 70
     6
  9
$SURFTAB2
 70
     6
  9
$SURFTYPE
 70
     6
  9
$SURFU
 70
     6
  9
$SURFV
 70
     6
  9
$UCSBASE
  2

  9
$UCSNAME
  2

  9
$UCSORG
 10
0.0
 20
0.0
 30
0.0
  9
$UCSXDIR
 10
1.0
 20
0.0
 30
0.0
  9
$UCSYDIR
 10
0.0
 20
1.0
 30
0.0
  9
$UCSORTHOREF
  2

  9
$UCSORTHOVIEW
 70
     0
  9
$UCSORGTOP
 10
0.0
 20
0.0
 30
0.0
  9
$UCSORGBOTTOM
 10
0.0
 20
0.0
 30
0.0
  9
$UCSORGLEFT
 10
0.0
 20
0.0
 30
0.0
  9
$UCSORGRIGHT
 10
0.0
 20
0.0
 30
0.0
  9
$UCSORGFRONT
 10
0.0
 20
0.0
 30
0.0
  9
$UCSORGBACK
 10
0.0
 20
0.0
 30
0.0
  9
$PUCSBASE
  2

  9
$PUCSNAME
  2

  9
$PUCSORG
 10
0.0
 20
0.0
 30
0.0
  9
$PUCSXDIR
 10
1.0
 20
0.0
 30
0.0
  9
$PUCSYDIR
 10
0.0
 20
1.0
 30
0.0
  9
$PUCSORTHOREF
  2

  9
$PUCSORTHOVIEW
 70
     0
  9
$PUCSORGTOP
 10
0.0
 20
0.0
 30
0.0
  9
$PUCSORGBOTTOM
 10
0.0
 20
0.0
 30
0.0
  9
$PUCSORGLEFT
 10
0.0
 20
0.0
 30
0.0
  9
$PUCSORGRIGHT
 10
0.0
 20
0.0
 30
0.0
  9
$PUCSORGFRONT
 10
0.0
 20
0.0
 30
0.0
  9
$PUCSORGBACK
 10
0.0
 20
0.0
 30
0.0
  9
$USERI1
 70
     0
  9
$USERI2
 70
     0
  9
$USERI3
 70
     0
  9
$USERI4
 70
     0
  9
$USERI5
 70
     0
  9
$USERR1
 40
0.0
  9
$USERR2
 40
0.0
  9
$USERR3
 40
0.0
  9
$USERR4
 40
0.0
  9
$USERR5
 40
0.0
  9
$WORLDVIEW
 70
     1
  9
$SHADEDGE
 70
     3
  9
$SHADEDIF
 70
    70
  9
$TILEMODE
 70
     1
  9
$MAXACTVP
 70
    16
  9
$PINSBASE
 10
0.0
 20
0.0
 30
0.0
  9
$PLIMCHECK
 70
     0
  9
$PEXTMIN
 10
1.000000000000000E+20
 20
1.000000000000000E+20
 30
1.000000000000000E+20
  9
$PEXTMAX
 10
-1.000000000000000E+20
 20
-1.000000000000000E+20
 30
-1.000000000000000E+20
  9
$PLIMMIN
 10
0.0
 20
0.0
  9
$PLIMMAX
 10
12.0
 20
9.0
  9
$UNITMODE
 70
     0
  9
$VISRETAIN
 70
     0
  9
$PLINEGEN
 70
     0
  9
$PSLTSCALE
 70
     1
  9
$TREEDEPTH
 70
  3020
  9
$CMLSTYLE
  2
STANDARD
  9
$CMLJUST
 70
     0
  9
$CMLSCALE
 40
1.0
  9
$PROXYGRAPHICS
 70
     1
  9
$MEASUREMENT
 70
     0
  9
$CELWEIGHT
370
    -1
  9
$ENDCAPS
280
     0
  9
$JOINSTYLE
280
     0
  9
$LWDISPLAY
290
     0
  9
$INSUNITS
 70
     0
  9
$HYPERLINKBASE
  1

  9
$STYLESHEET
  1

  9
$XEDIT
290
     1
  9
$CEPSNTYPE
380
     0
  9
$PSTYLEMODE
290
     1
  9
$FINGERPRINTGUID
  2
{9132F7A3-28EB-4D7C-AB9D-BFEFBE78D3F5}
  9
$VERSIONGUID
  2
{B2C3BC80-8948-4235-9C00-FE0055BCCB33}
  9
$EXTNAMES
290
     1
  9
$PSVPSCALE
 40
0.0
  9
$OLESTARTUP
290
     0
  9
$SORTENTS
280
   127
  9
$INDEXCTL
280
     0
  9
$HIDETEXT
280
     0
  9
$XCLIPFRAME
290
     0
  9
$HALOGAP
280
     0
  9
$OBSCOLOR
 70
   257
  9
$OBSLTYPE
280
     0
  9
$INTERSECTIONDISPLAY
280
     0
  9
$INTERSECTIONCOLOR
 70
   257
  9
$DIMASSOC
280
     1
  9
$PROJECTNAME
  1

  0
ENDSEC
  0
SECTION
  2
CLASSES
  0
CLASS
  1
ACDBDICTIONARYWDFLT
  2
AcDbDictionaryWithDefault
  3
ObjectDBX Classes
 90
        0
 91
        1
280
     0
281
     0
  0
CLASS
  1
TABLESTYLE
  2
AcDbTableStyle
  3
ObjectDBX Classes
 90
     2047
 91
        1
280
     0
281
     0
  0
CLASS
  1
DICTIONARYVAR
  2
AcDbDictionaryVar
  3
ObjectDBX Classes
 90
        0
 91
        1
280
     0
281
     0
  0
ENDSEC
  0
SECTION
  2
TABLES
  0
TABLE
  2
VPORT
  5
8
330
0
100
AcDbSymbolTable
 70
     2
  0
VPORT
  5
16D2F
330
8
100
AcDbSymbolTableRecord
100
AcDbViewportTableRecord
  2
*Active
 70
     0
 10
0.0
 20
0.0
 11
1.0
 21
1.0
 12
524.0972498083333
 22
180.307087233028
 13
0.0
 23
0.0
 14
1.0
 24
1.0
 15
0.0
 25
0.0
 16
0.0
 26
0.0
 36
1.0
 17
0.0
 27
0.0
 37
0.0
 40
477.9256494237833
 41
2.838137472283813
 42
50.0
 43
0.0
 44
0.0
 50
0.0
 51
0.0
 71
     0
 72
   100
 73
     1
 74
     0
 75
     0
 76
     0
 77
     0
 78
     0
281
     0
 65
     1
110
0.0
120
0.0
130
0.0
111
1.0
121
0.0
131
0.0
112
0.0
122
1.0
132
0.0
 79
     0
146
0.0
  0
ENDTAB
  0
TABLE
  2
LTYPE
  5
5
330
0
100
AcDbSymbolTable
 70
     4
  0
LTYPE
  5
13
330
5
100
AcDbSymbolTableRecord
100
AcDbLinetypeTableRecord
  2
BYBLOCK
 70
     0
  3

 72
    65
 73
     0
 40
0.0
  0
LTYPE
  5
14
330
5
100
AcDbSymbolTableRecord
100
AcDbLinetypeTableRecord
  2
BYLAYER
 70
     0
  3

 72
    65
 73
     0
 40
0.0
  0
LTYPE
  5
15
330
5
100
AcDbSymbolTableRecord
100
AcDbLinetypeTableRecord
  2
CONTINUOUS
 70
     0
  3
Solid line
 72
    65
 73
     0
 40
0.0
  0
LTYPE
  5
281A
330
5
100
AcDbSymbolTableRecord
100
AcDbLinetypeTableRecord
  2
CENTER
 70
     0
  3
____ _ ____ _ ____ _ ____ _ ____ _ ____ _ ____ 
 72
    65
 73
     4
 40
2.0
 49
1.25
 74
     0
 49
-0.25
 74
     0
 49
0.25
 74
     0
 49
-0.25
 74
     0
  0
LTYPE
  5
12E1B
330
5
100
AcDbSymbolTableRecord
100
AcDbLinetypeTableRecord
  2
HIDDEN
 70
     0
  3
__ __ __ __ __ __ __ __ __ __ __ __ __ __ __ __
 72
    65
 73
     2
 40
0.375
 49
0.25
 74
     0
 49
-0.125
 74
     0
  0
LTYPE
  5
12E1E
330
5
100
AcDbSymbolTableRecord
100
AcDbLinetypeTableRecord
  2
PHANTOM
 70
     0
  3
______  __  __  ______  __  __  ______  __  __ 
 72
    65
 73
     6
 40
2.5
 49
1.25
 74
     0
 49
-0.25
 74
     0
 49
0.25
 74
     0
 49
-0.25
 74
     0
 49
0.25
 74
     0
 49
-0.25
 74
     0
  0
ENDTAB
  0
TABLE
  2
LAYER
  5
2
330
0
100
AcDbSymbolTable
 70
     5
  0
LAYER
  5
F
330
2
100
AcDbSymbolTableRecord
100
AcDbLayerTableRecord
  2
0
 70
     0
 62
    -7
  6
CONTINUOUS
370
    -3
390
16C48
  0
LAYER
  5
26
330
2
100
AcDbSymbolTableRecord
100
AcDbLayerTableRecord
  2
1
 70
     0
 62
     1
  6
CONTINUOUS
370
    -3
390
16C48
  0
LAYER
  5
6AA
330
2
100
AcDbSymbolTableRecord
100
AcDbLayerTableRecord
  2
3
 70
     0
 62
     3
  6
CONTINUOUS
370
    -3
390
16C48
  0
LAYER
  5
6AC
330
2
100
AcDbSymbolTableRecord
100
AcDbLayerTableRecord
  2
5
 70
     0
 62
     6
  6
CONTINUOUS
370
    -3
390
16C48
  0
LAYER
  5
13385
330
2
100
AcDbSymbolTableRecord
100
AcDbLayerTableRecord
  2
DEFPOINTS
 70
     0
 62
     7
  6
CONTINUOUS
290
     0
370
    -3
390
16C48
  0
ENDTAB
  0
TABLE
  2
STYLE
  5
3
330
0
100
AcDbSymbolTable
 70
     2
  0
STYLE
  5
10
330
3
100
AcDbSymbolTableRecord
100
AcDbTextStyleTableRecord
  2
STANDARD
 70
     0
 40
0.0
 41
1.0
 50
0.0
 71
     0
 42
9.0
  3
TXT
  4
EXTFONT
  0
STYLE
  5
B22
330
3
100
AcDbSymbolTableRecord
100
AcDbTextStyleTableRecord
  2
EXTFONT
 70
     0
 40
0.0
 41
1.0
 50
0.0
 71
     0
 42
5.0
  3
TXT
  4
EXTFONT
  0
ENDTAB
  0
TABLE
  2
VIEW
  5
6
330
0
100
AcDbSymbolTable
 70
     0
  0
ENDTAB
  0
TABLE
  2
UCS
  5
7
330
0
100
AcDbSymbolTable
 70
     0
  0
ENDTAB
  0
TABLE
  2
APPID
  5
9
330
0
100
AcDbSymbolTable
 70
     1
  0
APPID
  5
11
330
9
100
AcDbSymbolTableRecord
100
AcDbRegAppTableRecord
  2
ACAD
 70
     0
  0
ENDTAB
  0
TABLE
  2
DIMSTYLE
  5
A
330
0
100
AcDbSymbolTable
 70
     2
100
AcDbDimStyleTable
 71
     0
  0
DIMSTYLE
105
6A4
330
A
100
AcDbSymbolTableRecord
100
AcDbDimStyleTableRecord
  2
STANDARD
 70
     0
340
10
  0
DIMSTYLE
105
B8C3
102
{ACAD_REACTORS
330
13478
330
15399
330
159E0
330
159ED
330
159FA
330
15A0F
330
16A66
330
16BFE
330
16C0B
330
16C18
330
16C25
330
16C32
102
}
330
A
100
AcDbSymbolTableRecord
100
AcDbDimStyleTableRecord
  2
KIHONN
 70
     0
 40
1.5
 41
2.0
 42
1.0
 43
5.0
 44
1.0
 73
     0
 74
     0
 77
     1
 78
     8
140
3.0
145
1.0
146
0.3333333333333333
147
1.0
172
     1
174
     1
175
     1
279
     2
340
B22
  0
ENDTAB
  0
TABLE
  2
BLOCK_RECORD
  5
1
330
0
100
AcDbSymbolTable
 70
    24
  0
BLOCK_RECORD
  5
19
330
1
100
AcDbSymbolTableRecord
100
AcDbBlockTableRecord
  2
*MODEL_SPACE
340
16C4F
  0
BLOCK_RECORD
  5
16
330
1
100
AcDbSymbolTableRecord
100
AcDbBlockTableRecord
  2
*PAPER_SPACE
340
16C50
  0
BLOCK_RECORD
  5
1346C
330
1
100
AcDbSymbolTableRecord
100
AcDbBlockTableRecord
  2
*D0
340
0
  0
BLOCK_RECORD
  5
1538D
330
1
100
AcDbSymbolTableRecord
100
AcDbBlockTableRecord
  2
*D1
340
0
  0
BLOCK_RECORD
  5
159D4
330
1
100
AcDbSymbolTableRecord
100
AcDbBlockTableRecord
  2
*D2
340
0
  0
BLOCK_RECORD
  5
159E1
330
1
100
AcDbSymbolTableRecord
100
AcDbBlockTableRecord
  2
*D3
340
0
  0
BLOCK_RECORD
  5
159EE
330
1
100
AcDbSymbolTableRecord
100
AcDbBlockTableRecord
  2
*D4
340
0
  0
BLOCK_RECORD
  5
15A03
330
1
100
AcDbSymbolTableRecord
100
AcDbBlockTableRecord
  2
*D5
340
0
  0
BLOCK_RECORD
  5
15C0B
330
1
100
AcDbSymbolTableRecord
100
AcDbBlockTableRecord
  2
*X6
340
0
102
{BLKREFS
331
15C0D
102
}
  0
BLOCK_RECORD
  5
166B3
330
1
100
AcDbSymbolTableRecord
100
AcDbBlockTableRecord
  2
*X7
340
0
102
{BLKREFS
331
166B5
102
}
  0
BLOCK_RECORD
  5
166E0
330
1
100
AcDbSymbolTableRecord
100
AcDbBlockTableRecord
  2
*X8
340
0
102
{BLKREFS
331
166E2
102
}
  0
BLOCK_RECORD
  5
166F3
330
1
100
AcDbSymbolTableRecord
100
AcDbBlockTableRecord
  2
*X9
340
0
102
{BLKREFS
331
166F5
102
}
  0
BLOCK_RECORD
  5
167BD
330
1
100
AcDbSymbolTableRecord
100
AcDbBlockTableRecord
  2
*X10
340
0
102
{BLKREFS
331
167BF
102
}
  0
BLOCK_RECORD
  5
1687B
330
1
100
AcDbSymbolTableRecord
100
AcDbBlockTableRecord
  2
*X11
340
0
102
{BLKREFS
331
1687D
102
}
  0
BLOCK_RECORD
  5
168D5
330
1
100
AcDbSymbolTableRecord
100
AcDbBlockTableRecord
  2
*X12
340
0
102
{BLKREFS
331
168D7
102
}
  0
BLOCK_RECORD
  5
16924
330
1
100
AcDbSymbolTableRecord
100
AcDbBlockTableRecord
  2
*X13
340
0
102
{BLKREFS
331
16926
102
}
  0
BLOCK_RECORD
  5
169F5
330
1
100
AcDbSymbolTableRecord
100
AcDbBlockTableRecord
  2
*X14
340
0
102
{BLKREFS
331
169F7
102
}
  0
BLOCK_RECORD
  5
16A5A
330
1
100
AcDbSymbolTableRecord
100
AcDbBlockTableRecord
  2
*D15
340
0
  0
BLOCK_RECORD
  5
16A9C
330
1
100
AcDbSymbolTableRecord
100
AcDbBlockTableRecord
  2
*X16
340
0
102
{BLKREFS
331
16A9E
102
}
  0
BLOCK_RECORD
  5
16B2D
330
1
100
AcDbSymbolTableRecord
100
AcDbBlockTableRecord
  2
*X17
340
0
102
{BLKREFS
331
16B2F
102
}
  0
BLOCK_RECORD
  5
16B67
330
1
100
AcDbSymbolTableRecord
100
AcDbBlockTableRecord
  2
*X18
340
0
102
{BLKREFS
331
16B69
102
}
  0
BLOCK_RECORD
  5
16BF2
330
1
100
AcDbSymbolTableRecord
100
AcDbBlockTableRecord
  2
*D19
340
0
  0
BLOCK_RECORD
  5
16BFF
330
1
100
AcDbSymbolTableRecord
100
AcDbBlockTableRecord
  2
*D20
340
0
  0
BLOCK_RECORD
  5
16C0C
330
1
100
AcDbSymbolTableRecord
100
AcDbBlockTableRecord
  2
*D21
340
0
  0
BLOCK_RECORD
  5
16C19
330
1
100
AcDbSymbolTableRecord
100
AcDbBlockTableRecord
  2
*D22
340
0
  0
BLOCK_RECORD
  5
16C26
330
1
100
AcDbSymbolTableRecord
100
AcDbBlockTableRecord
  2
*D23
340
0
  0
ENDTAB
  0
ENDSEC
  0
SECTION
  2
BLOCKS
  0
BLOCK
  5
1A
330
19
100
AcDbEntity
  8
0
100
AcDbBlockBegin
  2
*MODEL_SPACE
 70
     0
 10
0.0
 20
0.0
 30
0.0
  3
*MODEL_SPACE
  1

  0
ENDBLK
  5
1B
330
19
100
AcDbEntity
  8
0
100
AcDbBlockEnd
  0
BLOCK
  5
17
330
16
100
AcDbEntity
 67
     1
  8
0
100
AcDbBlockBegin
  2
*PAPER_SPACE
 70
     0
 10
0.0
 20
0.0
 30
0.0
  3
*PAPER_SPACE
  1

  0
ENDBLK
  5
18
330
16
100
AcDbEntity
 67
     1
  8
0
100
AcDbBlockEnd
  0
BLOCK
  5
159C9
330
1346C
100
AcDbEntity
  8
0
100
AcDbBlockBegin
  2
*D0
 70
     1
 10
0.0
 20
0.0
 30
0.0
  3
*D0
  1

  0
LINE
  5
16D24
330
1346C
100
AcDbEntity
  8
1
 62
     0
370
    -2
100
AcDbLine
 10
246.3585995971261
 20
132.4946145678862
 30
0.0
 11
279.3659071160739
 21
132.4946145678862
 31
0.0
  0
LINE
  5
16D25
330
1346C
100
AcDbEntity
  8
1
 62
     0
370
    -2
100
AcDbLine
 10
246.3585995971261
 20
297.4946145678862
 30
0.0
 11
279.3659071160739
 21
297.4946145678862
 31
0.0
  0
LINE
  5
16D26
330
1346C
100
AcDbEntity
  8
1
 62
     0
370
    -2
100
AcDbLine
 10
277.8659071160739
 20
135.4946145678862
 30
0.0
 11
277.8659071160739
 21
294.4946145678862
 31
0.0
  0
SOLID
  5
16D27
330
1346C
100
AcDbEntity
  8
1
 62
     0
100
AcDbTrace
 10
277.3659071160739
 20
135.4946145678862
 30
0.0
 11
278.3659071160739
 21
135.4946145678862
 31
0.0
 12
277.8659071160739
 22
132.4946145678862
 32
0.0
 13
277.8659071160739
 23
132.4946145678862
 33
0.0
  0
SOLID
  5
16D28
330
1346C
100
AcDbEntity
  8
1
 62
     0
100
AcDbTrace
 10
277.3659071160739
 20
294.4946145678862
 30
0.0
 11
278.3659071160739
 21
294.4946145678862
 31
0.0
 12
277.8659071160739
 22
297.4946145678862
 32
0.0
 13
277.8659071160739
 23
297.4946145678862
 33
0.0
  0
MTEXT
  5
16D29
330
1346C
100
AcDbEntity
  8
1
 62
     0
100
AcDbMText
 10
274.1159071160739
 20
214.9946145678862
 30
0.0
 40
4.5
 41
0.0
 71
     5
 72
     1
  1
\A1;165
  7
EXTFONT
 11
0.0000000000000001
 21
1.0
 31
0.0
 73
     1
 44
1.0
  0
POINT
  5
16D2A
330
1346C
100
AcDbEntity
  8
DEFPOINTS
 62
     0
100
AcDbPoint
 10
244.8585995971261
 20
132.4946145678862
 30
0.0
  0
POINT
  5
16D2B
330
1346C
100
AcDbEntity
  8
DEFPOINTS
 62
     0
100
AcDbPoint
 10
244.8585995971261
 20
297.4946145678862
 30
0.0
  0
POINT
  5
16D2C
330
1346C
100
AcDbEntity
  8
DEFPOINTS
 62
     0
100
AcDbPoint
 10
277.8659071160739
 20
297.4946145678862
 30
0.0
  0
ENDBLK
  5
159D3
330
1346C
100
AcDbEntity
  8
0
100
AcDbBlockEnd
  0
BLOCK
  5
1538E
330
1538D
100
AcDbEntity
  8
0
100
AcDbBlockBegin
  2
*D1
 70
     1
 10
0.0
 20
0.0
 30
0.0
  3
*D1
  1

  0
LINE
  5
16D1B
330
1538D
100
AcDbEntity
  8
1
 62
     0
370
    -2
100
AcDbLine
 10
290.5985740630685
 20
216.4946145678862
 30
0.0
 11
290.5985740630685
 21
316.708376644505
 31
0.0
  0
LINE
  5
16D1C
330
1538D
100
AcDbEntity
  8
1
 62
     0
370
    -2
100
AcDbLine
 10
358.5985740630737
 20
298.9946145678863
 30
0.0
 11
358.5985740630737
 21
316.708376644505
 31
0.0
  0
LINE
  5
16D1D
330
1538D
100
AcDbEntity
  8
1
 62
     0
370
    -2
100
AcDbLine
 10
293.5985740630684
 20
315.2083766445051
 30
0.0
 11
355.5985740630737
 21
315.2083766445051
 31
0.0
  0
SOLID
  5
16D1E
330
1538D
100
AcDbEntity
  8
1
 62
     0
100
AcDbTrace
 10
293.5985740630684
 20
315.7083766445051
 30
0.0
 11
293.5985740630684
 21
314.708376644505
 31
0.0
 12
290.5985740630685
 22
315.2083766445051
 32
0.0
 13
290.5985740630685
 23
315.2083766445051
 33
0.0
  0
SOLID
  5
16D1F
330
1538D
100
AcDbEntity
  8
1
 62
     0
100
AcDbTrace
 10
355.5985740630737
 20
315.7083766445051
 30
0.0
 11
355.5985740630737
 21
314.708376644505
 31
0.0
 12
358.5985740630737
 22
315.2083766445051
 32
0.0
 13
358.5985740630737
 23
315.2083766445051
 33
0.0
  0
MTEXT
  5
16D20
330
1538D
100
AcDbEntity
  8
1
 62
     0
100
AcDbMText
 10
324.5985740630711
 20
318.958376644505
 30
0.0
 40
4.5
 41
0.0
 71
     5
 72
     1
  1
\A1;68
  7
EXTFONT
 73
     1
 44
1.0
  0
POINT
  5
16D21
330
1538D
100
AcDbEntity
  8
DEFPOINTS
 62
     0
100
AcDbPoint
 10
290.5985740630685
 20
214.9946145678862
 30
0.0
  0
POINT
  5
16D22
330
1538D
100
AcDbEntity
  8
DEFPOINTS
 62
     0
100
AcDbPoint
 10
358.5985740630737
 20
297.4946145678863
 30
0.0
  0
POINT
  5
16D23
330
1538D
100
AcDbEntity
  8
DEFPOINTS
 62
     0
100
AcDbPoint
 10
358.5985740630737
 20
315.2083766445051
 30
0.0
  0
ENDBLK
  5
15398
330
1538D
100
AcDbEntity
  8
0
100
AcDbBlockEnd
  0
BLOCK
  5
159D5
330
159D4
100
AcDbEntity
  8
0
100
AcDbBlockBegin
  2
*D2
 70
     1
 10
0.0
 20
0.0
 30
0.0
  3
*D2
  1

  0
LINE
  5
16D12
330
159D4
100
AcDbEntity
  8
1
 62
     0
370
    -2
100
AcDbLine
 10
237.8585995971261
 20
294.9946145678861
 30
0.0
 11
270.1973710957402
 21
294.9946145678861
 31
0.0
  0
LINE
  5
16D13
330
159D4
100
AcDbEntity
  8
1
 62
     0
370
    -2
100
AcDbLine
 10
237.8585995971261
 20
134.9946145678861
 30
0.0
 11
270.1973710957402
 21
134.9946145678861
 31
0.0
  0
LINE
  5
16D14
330
159D4
100
AcDbEntity
  8
1
 62
     0
370
    -2
100
AcDbLine
 10
268.6973710957402
 20
291.9946145678862
 30
0.0
 11
268.6973710957402
 21
137.9946145678861
 31
0.0
  0
SOLID
  5
16D15
330
159D4
100
AcDbEntity
  8
1
 62
     0
100
AcDbTrace
 10
268.1973710957402
 20
291.9946145678862
 30
0.0
 11
269.1973710957402
 21
291.9946145678862
 31
0.0
 12
268.6973710957402
 22
294.9946145678861
 32
0.0
 13
268.6973710957402
 23
294.9946145678861
 33
0.0
  0
SOLID
  5
16D16
330
159D4
100
AcDbEntity
  8
1
 62
     0
100
AcDbTrace
 10
268.1973710957402
 20
137.9946145678861
 30
0.0
 11
269.1973710957402
 21
137.9946145678861
 31
0.0
 12
268.6973710957402
 22
134.9946145678861
 32
0.0
 13
268.6973710957402
 23
134.9946145678861
 33
0.0
  0
MTEXT
  5
16D17
330
159D4
100
AcDbEntity
  8
1
 62
     0
100
AcDbMText
 10
264.9473710957401
 20
214.9946145678862
 30
0.0
 40
4.5
 41
0.0
 71
     5
 72
     1
  1
\A1;160
  7
EXTFONT
 11
0.0000000000000001
 21
1.0
 31
0.0
 73
     1
 44
1.0
  0
POINT
  5
16D18
330
159D4
100
AcDbEntity
  8
DEFPOINTS
 62
     0
100
AcDbPoint
 10
236.3585995971261
 20
294.9946145678861
 30
0.0
  0
POINT
  5
16D19
330
159D4
100
AcDbEntity
  8
DEFPOINTS
 62
     0
100
AcDbPoint
 10
236.3585995971261
 20
134.9946145678861
 30
0.0
  0
POINT
  5
16D1A
330
159D4
100
AcDbEntity
  8
DEFPOINTS
 62
     0
100
AcDbPoint
 10
268.6973710957402
 20
134.9946145678861
 30
0.0
  0
ENDBLK
  5
159DF
330
159D4
100
AcDbEntity
  8
0
100
AcDbBlockEnd
  0
BLOCK
  5
15F09
330
159E1
100
AcDbEntity
  8
0
100
AcDbBlockBegin
  2
*D3
 70
     1
 10
0.0
 20
0.0
 30
0.0
  3
*D3
  1

  0
LINE
  5
16D09
330
159E1
100
AcDbEntity
  8
1
 62
     0
370
    -2
100
AcDbLine
 10
290.5985740630685
 20
216.4946145678862
 30
0.0
 11
290.5985740630685
 21
306.8024848375612
 31
0.0
  0
LINE
  5
16D0A
330
159E1
100
AcDbEntity
  8
1
 62
     0
370
    -2
100
AcDbLine
 10
328.0985740630737
 20
296.4946145678865
 30
0.0
 11
328.0985740630737
 21
306.8024848375612
 31
0.0
  0
LINE
  5
16D0B
330
159E1
100
AcDbEntity
  8
1
 62
     0
370
    -2
100
AcDbLine
 10
293.5985740630684
 20
305.3024848375612
 30
0.0
 11
325.0985740630737
 21
305.3024848375612
 31
0.0
  0
SOLID
  5
16D0C
330
159E1
100
AcDbEntity
  8
1
 62
     0
100
AcDbTrace
 10
293.5985740630684
 20
305.8024848375612
 30
0.0
 11
293.5985740630684
 21
304.8024848375612
 31
0.0
 12
290.5985740630685
 22
305.3024848375612
 32
0.0
 13
290.5985740630685
 23
305.3024848375612
 33
0.0
  0
SOLID
  5
16D0D
330
159E1
100
AcDbEntity
  8
1
 62
     0
100
AcDbTrace
 10
325.0985740630737
 20
305.8024848375612
 30
0.0
 11
325.0985740630737
 21
304.8024848375612
 31
0.0
 12
328.0985740630737
 22
305.3024848375612
 32
0.0
 13
328.0985740630737
 23
305.3024848375612
 33
0.0
  0
MTEXT
  5
16D0E
330
159E1
100
AcDbEntity
  8
1
 62
     0
100
AcDbMText
 10
309.3485740630711
 20
309.0524848375612
 30
0.0
 40
4.5
 41
0.0
 71
     5
 72
     1
  1
\A1;37.5
  7
EXTFONT
 73
     1
 44
1.0
  0
POINT
  5
16D0F
330
159E1
100
AcDbEntity
  8
DEFPOINTS
 62
     0
100
AcDbPoint
 10
290.5985740630685
 20
214.9946145678862
 30
0.0
  0
POINT
  5
16D10
330
159E1
100
AcDbEntity
  8
DEFPOINTS
 62
     0
100
AcDbPoint
 10
328.0985740630737
 20
294.9946145678865
 30
0.0
  0
POINT
  5
16D11
330
159E1
100
AcDbEntity
  8
DEFPOINTS
 62
     0
100
AcDbPoint
 10
328.0985740630737
 20
305.3024848375612
 30
0.0
  0
ENDBLK
  5
15F13
330
159E1
100
AcDbEntity
  8
0
100
AcDbBlockEnd
  0
BLOCK
  5
159EF
330
159EE
100
AcDbEntity
  8
0
100
AcDbBlockBegin
  2
*D4
 70
     1
 10
0.0
 20
0.0
 30
0.0
  3
*D4
  1

  0
LINE
  5
16D00
330
159EE
100
AcDbEntity
  8
1
 62
     0
370
    -2
100
AcDbLine
 10
81.85859959712605
 20
132.9946145678861
 30
0.0
 11
81.85859959712605
 21
92.84500083131343
 31
0.0
  0
LINE
  5
16D01
330
159EE
100
AcDbEntity
  8
1
 62
     0
370
    -2
100
AcDbLine
 10
246.8585995971261
 20
132.9946145678861
 30
0.0
 11
246.8585995971261
 21
92.84500083131343
 31
0.0
  0
LINE
  5
16D02
330
159EE
100
AcDbEntity
  8
1
 62
     0
370
    -2
100
AcDbLine
 10
84.85859959712604
 20
94.34500083131343
 30
0.0
 11
243.8585995971261
 21
94.34500083131343
 31
0.0
  0
SOLID
  5
16D03
330
159EE
100
AcDbEntity
  8
1
 62
     0
100
AcDbTrace
 10
84.85859959712604
 20
94.84500083131342
 30
0.0
 11
84.85859959712604
 21
93.84500083131342
 31
0.0
 12
81.85859959712605
 22
94.34500083131343
 32
0.0
 13
81.85859959712605
 23
94.34500083131343
 33
0.0
  0
SOLID
  5
16D04
330
159EE
100
AcDbEntity
  8
1
 62
     0
100
AcDbTrace
 10
243.8585995971261
 20
94.84500083131342
 30
0.0
 11
243.8585995971261
 21
93.84500083131342
 31
0.0
 12
246.8585995971261
 22
94.34500083131343
 32
0.0
 13
246.8585995971261
 23
94.34500083131343
 33
0.0
  0
MTEXT
  5
16D05
330
159EE
100
AcDbEntity
  8
1
 62
     0
100
AcDbMText
 10
164.3585995971261
 20
98.09500083131343
 30
0.0
 40
4.5
 41
0.0
 71
     5
 72
     1
  1
\A1;165
  7
EXTFONT
 73
     1
 44
1.0
  0
POINT
  5
16D06
330
159EE
100
AcDbEntity
  8
DEFPOINTS
 62
     0
100
AcDbPoint
 10
81.85859959712605
 20
134.4946145678862
 30
0.0
  0
POINT
  5
16D07
330
159EE
100
AcDbEntity
  8
DEFPOINTS
 62
     0
100
AcDbPoint
 10
246.8585995971261
 20
134.4946145678862
 30
0.0
  0
POINT
  5
16D08
330
159EE
100
AcDbEntity
  8
DEFPOINTS
 62
     0
100
AcDbPoint
 10
246.8585995971261
 20
94.34500083131343
 30
0.0
  0
ENDBLK
  5
159F9
330
159EE
100
AcDbEntity
  8
0
100
AcDbBlockEnd
  0
BLOCK
  5
15A04
330
15A03
100
AcDbEntity
  8
0
100
AcDbBlockBegin
  2
*D5
 70
     1
 10
0.0
 20
0.0
 30
0.0
  3
*D5
  1

  0
LINE
  5
16CF7
330
15A03
100
AcDbEntity
  8
1
 62
     0
370
    -2
100
AcDbLine
 10
84.3585995971261
 20
141.4946145678861
 30
0.0
 11
84.3585995971261
 21
107.1247830536624
 31
0.0
  0
LINE
  5
16CF8
330
15A03
100
AcDbEntity
  8
1
 62
     0
370
    -2
100
AcDbLine
 10
244.3585995971261
 20
141.4946145678861
 30
0.0
 11
244.3585995971261
 21
107.1247830536624
 31
0.0
  0
LINE
  5
16CF9
330
15A03
100
AcDbEntity
  8
1
 62
     0
370
    -2
100
AcDbLine
 10
87.35859959712611
 20
108.6247830536624
 30
0.0
 11
241.3585995971261
 21
108.6247830536624
 31
0.0
  0
SOLID
  5
16CFA
330
15A03
100
AcDbEntity
  8
1
 62
     0
100
AcDbTrace
 10
87.35859959712611
 20
109.1247830536624
 30
0.0
 11
87.35859959712611
 21
108.1247830536624
 31
0.0
 12
84.3585995971261
 22
108.6247830536624
 32
0.0
 13
84.3585995971261
 23
108.6247830536624
 33
0.0
  0
SOLID
  5
16CFB
330
15A03
100
AcDbEntity
  8
1
 62
     0
100
AcDbTrace
 10
241.3585995971261
 20
109.1247830536624
 30
0.0
 11
241.3585995971261
 21
108.1247830536624
 31
0.0
 12
244.3585995971261
 22
108.6247830536624
 32
0.0
 13
244.3585995971261
 23
108.6247830536624
 33
0.0
  0
MTEXT
  5
16CFC
330
15A03
100
AcDbEntity
  8
1
 62
     0
100
AcDbMText
 10
164.3585995971261
 20
112.3747830536624
 30
0.0
 40
4.5
 41
0.0
 71
     5
 72
     1
  1
\A1;160
  7
EXTFONT
 73
     1
 44
1.0
  0
POINT
  5
16CFD
330
15A03
100
AcDbEntity
  8
DEFPOINTS
 62
     0
100
AcDbPoint
 10
84.3585995971261
 20
142.9946145678861
 30
0.0
  0
POINT
  5
16CFE
330
15A03
100
AcDbEntity
  8
DEFPOINTS
 62
     0
100
AcDbPoint
 10
244.3585995971261
 20
142.9946145678861
 30
0.0
  0
POINT
  5
16CFF
330
15A03
100
AcDbEntity
  8
DEFPOINTS
 62
     0
100
AcDbPoint
 10
244.3585995971261
 20
108.6247830536624
 30
0.0
  0
ENDBLK
  5
15A0E
330
15A03
100
AcDbEntity
  8
0
100
AcDbBlockEnd
  0
BLOCK
  5
15C0C
330
15C0B
100
AcDbEntity
  8
0
100
AcDbBlockBegin
  2
*X6
 70
     1
 10
0.0
 20
0.0
 30
0.0
  3
*X6
  1

  0
LINE
  5
15C0E
330
15C0B
100
AcDbEntity
  8
0
 62
     0
100
AcDbLine
 10
274.32
 20
214.47114
 30
0.0
 11
275.8660056230129
 21
214.47114
 31
0.0
  0
LINE
  5
15C0F
330
15C0B
100
AcDbEntity
  8
0
 62
     0
100
AcDbLine
 10
274.32
 20
217.770696
 30
0.0
 11
275.8743414541326
 21
217.770696
 31
0.0
  0
LINE
  5
15C10
330
15C0B
100
AcDbEntity
  8
0
 62
     0
100
AcDbLine
 10
274.32
 20
221.0702519999999
 30
0.0
 11
275.9070989829784
 21
221.0702519999999
 31
0.0
  0
LINE
  5
15C11
330
15C0B
100
AcDbEntity
  8
0
 62
     0
100
AcDbLine
 10
274.32
 20
224.369808
 30
0.0
 11
275.9642835939575
 21
224.369808
 31
0.0
  0
LINE
  5
15C12
330
15C0B
100
AcDbEntity
  8
0
 62
     0
100
AcDbLine
 10
274.32
 20
227.669364
 30
0.0
 11
276.0459046903906
 21
227.669364
 31
0.0
  0
LINE
  5
15C13
330
15C0B
100
AcDbEntity
  8
0
 62
     0
100
AcDbLine
 10
274.32
 20
230.96892
 30
0.0
 11
276.1519757022465
 21
230.96892
 31
0.0
  0
LINE
  5
15C14
330
15C0B
100
AcDbEntity
  8
0
 62
     0
100
AcDbLine
 10
274.32
 20
234.268476
 30
0.0
 11
276.225
 21
234.268476
 31
0.0
  0
LINE
  5
15C15
330
15C0B
100
AcDbEntity
  8
0
 62
     0
100
AcDbLine
 10
274.32
 20
237.568032
 30
0.0
 11
276.225
 21
237.568032
 31
0.0
  0
LINE
  5
15C16
330
15C0B
100
AcDbEntity
  8
0
 62
     0
100
AcDbLine
 10
274.32
 20
240.867588
 30
0.0
 11
276.225
 21
240.867588
 31
0.0
  0
LINE
  5
15C17
330
15C0B
100
AcDbEntity
  8
0
 62
     0
100
AcDbLine
 10
274.32
 20
244.1671439999999
 30
0.0
 11
276.225
 21
244.1671439999999
 31
0.0
  0
LINE
  5
15C18
330
15C0B
100
AcDbEntity
  8
0
 62
     0
100
AcDbLine
 10
274.32
 20
247.4667
 30
0.0
 11
276.225
 21
247.4667
 31
0.0
  0
LINE
  5
15C19
330
15C0B
100
AcDbEntity
  8
0
 62
     0
100
AcDbLine
 10
274.32
 20
250.7662559999999
 30
0.0
 11
276.225
 21
250.7662559999999
 31
0.0
  0
LINE
  5
15C1A
330
15C0B
100
AcDbEntity
  8
0
 62
     0
100
AcDbLine
 10
274.32
 20
254.065812
 30
0.0
 11
276.225
 21
254.065812
 31
0.0
  0
LINE
  5
15C1B
330
15C0B
100
AcDbEntity
  8
0
 62
     0
100
AcDbLine
 10
274.32
 20
257.3653679999999
 30
0.0
 11
276.225
 21
257.3653679999999
 31
0.0
  0
LINE
  5
15C1C
330
15C0B
100
AcDbEntity
  8
0
 62
     0
100
AcDbLine
 10
274.32
 20
260.664924
 30
0.0
 11
276.225
 21
260.664924
 31
0.0
  0
LINE
  5
15C1D
330
15C0B
100
AcDbEntity
  8
0
 62
     0
100
AcDbLine
 10
274.32
 20
263.96448
 30
0.0
 11
276.225
 21
263.96448
 31
0.0
  0
LINE
  5
15C1E
330
15C0B
100
AcDbEntity
  8
0
 62
     0
100
AcDbLine
 10
274.32
 20
267.264036
 30
0.0
 11
276.225
 21
267.264036
 31
0.0
  0
LINE
  5
15C1F
330
15C0B
100
AcDbEntity
  8
0
 62
     0
100
AcDbLine
 10
274.32
 20
270.563592
 30
0.0
 11
276.225
 21
270.563592
 31
0.0
  0
LINE
  5
15C20
330
15C0B
100
AcDbEntity
  8
0
 62
     0
100
AcDbLine
 10
274.7257200185394
 20
273.863148
 30
0.0
 11
276.225
 21
273.863148
 31
0.0
  0
LINE
  5
15C21
330
15C0B
100
AcDbEntity
  8
0
 62
     0
100
AcDbLine
 10
275.1726958859881
 20
277.162704
 30
0.0
 11
276.225
 21
277.162704
 31
0.0
  0
LINE
  5
15C22
330
15C0B
100
AcDbEntity
  8
0
 62
     0
100
AcDbLine
 10
280.035
 20
277.162704
 30
0.0
 11
280.2214732405674
 21
277.162704
 31
0.0
  0
LINE
  5
15C23
330
15C0B
100
AcDbEntity
  8
0
 62
     0
100
AcDbLine
 10
275.6445268007836
 20
280.46226
 30
0.0
 11
276.225
 21
280.46226
 31
0.0
  0
LINE
  5
15C24
330
15C0B
100
AcDbEntity
  8
0
 62
     0
100
AcDbLine
 10
280.035
 20
280.46226
 30
0.0
 11
280.6987059402124
 21
280.46226
 31
0.0
  0
LINE
  5
15C25
330
15C0B
100
AcDbEntity
  8
0
 62
     0
100
AcDbLine
 10
276.141291726062
 20
283.7618159999999
 30
0.0
 11
276.225
 21
283.7618159999999
 31
0.0
  0
LINE
  5
15C26
330
15C0B
100
AcDbEntity
  8
0
 62
     0
100
AcDbLine
 10
280.035
 20
283.7618159999999
 30
0.0
 11
281.2011706861245
 21
283.7618159999999
 31
0.0
  0
LINE
  5
15C27
330
15C0B
100
AcDbEntity
  8
0
 62
     0
100
AcDbLine
 10
274.32
 20
211.171584
 30
0.0
 11
275.8820901196979
 21
211.171584
 31
0.0
  0
LINE
  5
15C28
330
15C0B
100
AcDbEntity
  8
0
 62
     0
100
AcDbLine
 10
274.32
 20
207.872028
 30
0.0
 11
275.9225975876266
 21
207.872028
 31
0.0
  0
LINE
  5
15C29
330
15C0B
100
AcDbEntity
  8
0
 62
     0
100
AcDbLine
 10
274.32
 20
204.572472
 30
0.0
 11
275.9875346857708
 21
204.572472
 31
0.0
  0
LINE
  5
15C2A
330
15C0B
100
AcDbEntity
  8
0
 62
     0
100
AcDbLine
 10
274.32
 20
201.272916
 30
0.0
 11
276.076912094111
 21
201.272916
 31
0.0
  0
LINE
  5
15C2B
330
15C0B
100
AcDbEntity
  8
0
 62
     0
100
AcDbLine
 10
274.32
 20
197.9733599999999
 30
0.0
 11
276.1907445224249
 21
197.9733599999999
 31
0.0
  0
LINE
  5
15C2C
330
15C0B
100
AcDbEntity
  8
0
 62
     0
100
AcDbLine
 10
274.32
 20
194.6738039999999
 30
0.0
 11
276.225
 21
194.6738039999999
 31
0.0
  0
LINE
  5
15C2D
330
15C0B
100
AcDbEntity
  8
0
 62
     0
100
AcDbLine
 10
274.32
 20
191.3742479999999
 30
0.0
 11
276.225
 21
191.3742479999999
 31
0.0
  0
LINE
  5
15C2E
330
15C0B
100
AcDbEntity
  8
0
 62
     0
100
AcDbLine
 10
274.32
 20
188.0746919999999
 30
0.0
 11
276.225
 21
188.0746919999999
 31
0.0
  0
LINE
  5
15C2F
330
15C0B
100
AcDbEntity
  8
0
 62
     0
100
AcDbLine
 10
274.32
 20
184.7751359999999
 30
0.0
 11
276.225
 21
184.7751359999999
 31
0.0
  0
LINE
  5
15C30
330
15C0B
100
AcDbEntity
  8
0
 62
     0
100
AcDbLine
 10
274.32
 20
181.47558
 30
0.0
 11
276.225
 21
181.47558
 31
0.0
  0
LINE
  5
15C31
330
15C0B
100
AcDbEntity
  8
0
 62
     0
100
AcDbLine
 10
274.32
 20
178.176024
 30
0.0
 11
276.225
 21
178.176024
 31
0.0
  0
LINE
  5
15C32
330
15C0B
100
AcDbEntity
  8
0
 62
     0
100
AcDbLine
 10
274.32
 20
174.8764679999999
 30
0.0
 11
276.225
 21
174.8764679999999
 31
0.0
  0
LINE
  5
15C33
330
15C0B
100
AcDbEntity
  8
0
 62
     0
100
AcDbLine
 10
274.32
 20
171.5769119999999
 30
0.0
 11
276.225
 21
171.5769119999999
 31
0.0
  0
LINE
  5
15C34
330
15C0B
100
AcDbEntity
  8
0
 62
     0
100
AcDbLine
 10
274.32
 20
168.277356
 30
0.0
 11
276.225
 21
168.277356
 31
0.0
  0
LINE
  5
15C35
330
15C0B
100
AcDbEntity
  8
0
 62
     0
100
AcDbLine
 10
274.32
 20
164.9777999999999
 30
0.0
 11
276.225
 21
164.9777999999999
 31
0.0
  0
LINE
  5
15C36
330
15C0B
100
AcDbEntity
  8
0
 62
     0
100
AcDbLine
 10
274.32
 20
161.6782439999999
 30
0.0
 11
276.225
 21
161.6782439999999
 31
0.0
  0
LINE
  5
15C37
330
15C0B
100
AcDbEntity
  8
0
 62
     0
100
AcDbLine
 10
274.4348076335992
 20
158.378688
 30
0.0
 11
276.225
 21
158.378688
 31
0.0
  0
LINE
  5
15C38
330
15C0B
100
AcDbEntity
  8
0
 62
     0
100
AcDbLine
 10
274.8648580189668
 20
155.079132
 30
0.0
 11
276.225
 21
155.079132
 31
0.0
  0
LINE
  5
15C39
330
15C0B
100
AcDbEntity
  8
0
 62
     0
100
AcDbLine
 10
275.3197121132205
 20
151.7795759999999
 30
0.0
 11
276.225
 21
151.7795759999999
 31
0.0
  0
LINE
  5
15C3A
330
15C0B
100
AcDbEntity
  8
0
 62
     0
100
AcDbLine
 10
280.035
 20
151.7795759999999
 30
0.0
 11
280.3701713461199
 21
151.7795759999999
 31
0.0
  0
LINE
  5
15C3B
330
15C0B
100
AcDbEntity
  8
0
 62
     0
100
AcDbLine
 10
275.7994458228755
 20
148.48002
 30
0.0
 11
276.225
 21
148.48002
 31
0.0
  0
LINE
  5
15C3C
330
15C0B
100
AcDbEntity
  8
0
 62
     0
100
AcDbLine
 10
280.035
 20
148.48002
 30
0.0
 11
280.8554010981339
 21
148.48002
 31
0.0
  0
LINE
  5
15C3D
330
15C0B
100
AcDbEntity
  8
0
 62
     0
100
AcDbLine
 10
274.3199283069837
 20
217.7707066436526
 30
0.0
 11
273.3674283069837
 21
219.420485037862
 31
0.0
  0
LINE
  5
15C3E
330
15C0B
100
AcDbEntity
  8
0
 62
     0
100
AcDbLine
 10
271.4624283069837
 20
222.7200418262807
 30
0.0
 11
270.9480453230035
 21
223.6109792890832
 31
0.0
  0
LINE
  5
15C3F
330
15C0B
100
AcDbEntity
  8
0
 62
     0
100
AcDbLine
 10
274.3199289897743
 20
211.1715934610245
 30
0.0
 11
273.3674289897743
 21
212.8213718552339
 31
0.0
  0
LINE
  5
15C40
330
15C0B
100
AcDbEntity
  8
0
 62
     0
100
AcDbLine
 10
271.4624289897744
 20
216.1209286436525
 30
0.0
 11
270.8708297602119
 21
217.1456085669733
 31
0.0
  0
LINE
  5
15C41
330
15C0B
100
AcDbEntity
  8
0
 62
     0
100
AcDbLine
 10
274.3199296725649
 20
204.5724802783964
 30
0.0
 11
273.367429672565
 21
206.2222586726058
 31
0.0
  0
LINE
  5
15C42
330
15C0B
100
AcDbEntity
  8
0
 62
     0
100
AcDbLine
 10
271.462429672565
 20
209.5218154610245
 30
0.0
 11
270.8879360007721
 21
210.5168676891966
 31
0.0
  0
LINE
  5
15C43
330
15C0B
100
AcDbEntity
  8
0
 62
     0
100
AcDbLine
 10
276.3380319179202
 20
194.4779126545723
 30
0.0
 11
276.2249303553556
 21
194.6738103073496
 31
0.0
  0
LINE
  5
15C44
330
15C0B
100
AcDbEntity
  8
0
 62
     0
100
AcDbLine
 10
274.3199303553556
 20
197.9733670957683
 30
0.0
 11
273.3674303553556
 21
199.6231454899777
 31
0.0
  0
LINE
  5
15C45
330
15C0B
100
AcDbEntity
  8
0
 62
     0
100
AcDbLine
 10
271.4624303553557
 20
202.9227022783964
 30
0.0
 11
271.0069103588224
 21
203.7116860562557
 31
0.0
  0
LINE
  5
15C46
330
15C0B
100
AcDbEntity
  8
0
 62
     0
100
AcDbLine
 10
276.7333208954743
 20
187.1941400617767
 30
0.0
 11
276.2249310381462
 21
188.0746971247216
 31
0.0
  0
LINE
  5
15C47
330
15C0B
100
AcDbEntity
  8
0
 62
     0
100
AcDbLine
 10
274.3199310381462
 20
191.3742539131403
 30
0.0
 11
273.3674310381463
 21
193.0240323073497
 31
0.0
  0
LINE
  5
15C48
330
15C0B
100
AcDbEntity
  8
0
 62
     0
100
AcDbLine
 10
271.4624310381463
 20
196.3235890957683
 30
0.0
 11
271.2364404780966
 21
196.7150162278054
 31
0.0
  0
LINE
  5
15C49
330
15C0B
100
AcDbEntity
  8
0
 62
     0
100
AcDbLine
 10
277.1774317209368
 20
179.8258055478842
 30
0.0
 11
276.2249317209368
 21
181.4755839420935
 31
0.0
  0
LINE
  5
15C4A
330
15C0B
100
AcDbEntity
  8
0
 62
     0
100
AcDbLine
 10
274.3199317209368
 20
184.7751407305122
 30
0.0
 11
273.3674317209369
 21
186.4249191247216
 31
0.0
  0
LINE
  5
15C4B
330
15C0B
100
AcDbEntity
  8
0
 62
     0
100
AcDbLine
 10
277.1774324037275
 20
173.2266923652561
 30
0.0
 11
276.2249324037275
 21
174.8764707594655
 31
0.0
  0
LINE
  5
15C4C
330
15C0B
100
AcDbEntity
  8
0
 62
     0
100
AcDbLine
 10
274.3199324037275
 20
178.1760275478842
 30
0.0
 11
273.3674324037275
 21
179.8258059420935
 31
0.0
  0
LINE
  5
15C4D
330
15C0B
100
AcDbEntity
  8
0
 62
     0
100
AcDbLine
 10
277.1774330865181
 20
166.627579182628
 30
0.0
 11
276.2249330865181
 21
168.2773575768374
 31
0.0
  0
LINE
  5
15C4E
330
15C0B
100
AcDbEntity
  8
0
 62
     0
100
AcDbLine
 10
274.3199330865181
 20
171.5769143652561
 30
0.0
 11
273.3674330865181
 21
173.2266927594654
 31
0.0
  0
LINE
  5
15C4F
330
15C0B
100
AcDbEntity
  8
0
 62
     0
100
AcDbLine
 10
279.871915716745
 20
155.3614863669631
 30
0.0
 11
279.0824337693087
 21
156.7289092115812
 31
0.0
  0
LINE
  5
15C50
330
15C0B
100
AcDbEntity
  8
0
 62
     0
100
AcDbLine
 10
277.1774337693087
 20
160.0284659999999
 30
0.0
 11
276.2249337693087
 21
161.6782443942093
 31
0.0
  0
LINE
  5
15C51
330
15C0B
100
AcDbEntity
  8
0
 62
     0
100
AcDbLine
 10
274.3199337693088
 20
164.977801182628
 30
0.0
 11
273.4908594211945
 21
166.4138000768139
 31
0.0
  0
LINE
  5
15C52
330
15C0B
100
AcDbEntity
  8
0
 62
     0
100
AcDbLine
 10
280.0349344520995
 20
148.4800176347438
 30
0.0
 11
279.0824344520995
 21
150.1297960289532
 31
0.0
  0
LINE
  5
15C53
330
15C0B
100
AcDbEntity
  8
0
 62
     0
100
AcDbLine
 10
277.1774344520995
 20
153.4293528173719
 30
0.0
 11
276.2249344520995
 21
155.0791312115812
 31
0.0
  0
LINE
  5
15C54
330
15C0B
100
AcDbEntity
  8
0
 62
     0
100
AcDbLine
 10
277.17743513489
 20
146.8302396347438
 30
0.0
 11
276.22493513489
 21
148.4800180289532
 31
0.0
  0
LINE
  5
15C55
330
15C0B
100
AcDbEntity
  8
0
 62
     0
100
AcDbLine
 10
274.319927624193
 20
224.3698198262807
 30
0.0
 11
273.3674276241931
 21
226.01959822049
 31
0.0
  0
LINE
  5
15C56
330
15C0B
100
AcDbEntity
  8
0
 62
     0
100
AcDbLine
 10
271.4624276241931
 20
229.3191550089087
 30
0.0
 11
271.1129774690647
 21
229.924420432304
 31
0.0
  0
LINE
  5
15C57
330
15C0B
100
AcDbEntity
  8
0
 62
     0
100
AcDbLine
 10
274.3199269414024
 20
230.9689330089087
 30
0.0
 11
273.3674269414024
 21
232.618711403118
 31
0.0
  0
LINE
  5
15C58
330
15C0B
100
AcDbEntity
  8
0
 62
     0
100
AcDbLine
 10
271.4624269414024
 20
235.9182681915367
 30
0.0
 11
271.3598049446058
 21
236.0960147039625
 31
0.0
  0
LINE
  5
15C59
330
15C0B
100
AcDbEntity
  8
0
 62
     0
100
AcDbLine
 10
276.2785084018881
 20
234.1756824085852
 30
0.0
 11
276.2249262586118
 21
234.2684894031181
 31
0.0
  0
LINE
  5
15C5A
330
15C0B
100
AcDbEntity
  8
0
 62
     0
100
AcDbLine
 10
274.3199262586118
 20
237.5680461915368
 30
0.0
 11
273.3674262586118
 21
239.2178245857462
 31
0.0
  0
LINE
  5
15C5B
330
15C0B
100
AcDbEntity
  8
0
 62
     0
100
AcDbLine
 10
276.581601562342
 20
240.2498216552523
 30
0.0
 11
276.2249255758212
 21
240.8676025857462
 31
0.0
  0
LINE
  5
15C5C
330
15C0B
100
AcDbEntity
  8
0
 62
     0
100
AcDbLine
 10
274.3199255758212
 20
244.1671593741649
 30
0.0
 11
273.3674255758212
 21
245.8169377683742
 31
0.0
  0
LINE
  5
15C5D
330
15C0B
100
AcDbEntity
  8
0
 62
     0
100
AcDbLine
 10
276.958828361186
 20
246.1955576736778
 30
0.0
 11
276.2249248930305
 21
247.4667157683742
 31
0.0
  0
LINE
  5
15C5E
330
15C0B
100
AcDbEntity
  8
0
 62
     0
100
AcDbLine
 10
274.3199248930305
 20
250.7662725567929
 30
0.0
 11
273.3674248930305
 21
252.4160509510023
 31
0.0
  0
LINE
  5
15C5F
330
15C0B
100
AcDbEntity
  8
0
 62
     0
100
AcDbLine
 10
277.1774242102399
 20
252.4160505567929
 30
0.0
 11
276.2249242102399
 21
254.0658289510022
 31
0.0
  0
LINE
  5
15C60
330
15C0B
100
AcDbEntity
  8
0
 62
     0
100
AcDbLine
 10
274.3199242102399
 20
257.3653857394209
 30
0.0
 11
273.3674242102399
 21
259.0151641336303
 31
0.0
  0
LINE
  5
15C61
330
15C0B
100
AcDbEntity
  8
0
 62
     0
100
AcDbLine
 10
277.1774235274493
 20
259.0151637394209
 30
0.0
 11
276.2249235274493
 21
260.6649421336303
 31
0.0
  0
LINE
  5
15C62
330
15C0B
100
AcDbEntity
  8
0
 62
     0
100
AcDbLine
 10
274.3199235274494
 20
263.964498922049
 30
0.0
 11
273.659642997001
 21
265.1081383480341
 31
0.0
  0
LINE
  5
15C63
330
15C0B
100
AcDbEntity
  8
0
 62
     0
100
AcDbLine
 10
277.1774228446586
 20
265.614276922049
 30
0.0
 11
276.2249228446586
 21
267.2640553162584
 31
0.0
  0
LINE
  5
15C64
330
15C0B
100
AcDbEntity
  8
0
 62
     0
100
AcDbLine
 10
274.3199228446587
 20
270.5636121046771
 30
0.0
 11
274.3064304772044
 21
270.5869815706223
 31
0.0
  0
LINE
  5
15C65
330
15C0B
100
AcDbEntity
  8
0
 62
     0
100
AcDbLine
 10
279.1285352130677
 20
268.8339631686885
 30
0.0
 11
279.082422161868
 21
268.9138333162584
 31
0.0
  0
LINE
  5
15C66
330
15C0B
100
AcDbEntity
  8
0
 62
     0
100
AcDbLine
 10
277.177422161868
 20
272.2133901046771
 30
0.0
 11
276.224922161868
 21
273.8631684988865
 31
0.0
  0
LINE
  5
15C67
330
15C0B
100
AcDbEntity
  8
0
 62
     0
100
AcDbLine
 10
279.8193029963242
 20
274.2366302718563
 30
0.0
 11
279.0824214790773
 21
275.5129464988864
 31
0.0
  0
LINE
  5
15C68
330
15C0B
100
AcDbEntity
  8
0
 62
     0
100
AcDbLine
 10
277.1774214790773
 20
278.8125032873052
 30
0.0
 11
276.2249214790774
 21
280.4622816815145
 31
0.0
  0
LINE
  5
15C69
330
15C0B
100
AcDbEntity
  8
0
 62
     0
100
AcDbLine
 10
280.0349207962867
 20
280.4622812873052
 30
0.0
 11
279.0824207962867
 21
282.1120596815145
 31
0.0
  0
LINE
  5
15C6A
330
15C0B
100
AcDbEntity
  8
0
 62
     0
100
AcDbLine
 10
271.0471938764372
 20
202.2034742545423
 30
0.0
 11
271.4624726883747
 21
202.9227582561249
 31
0.0
  0
LINE
  5
15C6B
330
15C0B
100
AcDbEntity
  8
0
 62
     0
100
AcDbLine
 10
273.3674726883746
 20
206.2223150445436
 30
0.0
 11
274.3199726883746
 21
207.872093438753
 31
0.0
  0
LINE
  5
15C6C
330
15C0B
100
AcDbEntity
  8
0
 62
     0
100
AcDbLine
 10
270.911512852929
 20
208.5675798282034
 30
0.0
 11
271.4624733711653
 21
209.521871438753
 31
0.0
  0
LINE
  5
15C6D
330
15C0B
100
AcDbEntity
  8
0
 62
     0
100
AcDbLine
 10
273.3674733711652
 20
212.8214282271717
 30
0.0
 11
274.3199733711652
 21
214.4712066213811
 31
0.0
  0
LINE
  5
15C6E
330
15C0B
100
AcDbEntity
  8
0
 62
     0
100
AcDbLine
 10
270.8657078390282
 20
215.0873552168857
 30
0.0
 11
271.4624740539559
 21
216.120984621381
 31
0.0
  0
LINE
  5
15C6F
330
15C0B
100
AcDbEntity
  8
0
 62
     0
100
AcDbLine
 10
273.3674740539559
 20
219.4205414097997
 30
0.0
 11
274.3199740539558
 21
221.0703198040091
 31
0.0
  0
LINE
  5
15C70
330
15C0B
100
AcDbEntity
  8
0
 62
     0
100
AcDbLine
 10
270.9166857296191
 20
221.7747635134518
 30
0.0
 11
271.4624747367466
 21
222.7200978040091
 31
0.0
  0
LINE
  5
15C71
330
15C0B
100
AcDbEntity
  8
0
 62
     0
100
AcDbLine
 10
273.3674747367465
 20
226.0196545924278
 30
0.0
 11
274.3199747367465
 21
227.6694329866372
 31
0.0
  0
LINE
  5
15C72
330
15C0B
100
AcDbEntity
  8
0
 62
     0
100
AcDbLine
 10
271.0723573570003
 20
228.643506681373
 30
0.0
 11
271.4624754195372
 21
229.3192109866371
 31
0.0
  0
LINE
  5
15C73
330
15C0B
100
AcDbEntity
  8
0
 62
     0
100
AcDbLine
 10
273.3674754195371
 20
232.6187677750559
 30
0.0
 11
274.3199754195371
 21
234.2685461692652
 31
0.0
  0
LINE
  5
15C74
330
15C0B
100
AcDbEntity
  8
0
 62
     0
100
AcDbLine
 10
276.2249754195371
 20
237.5681029576839
 30
0.0
 11
276.4582092987288
 21
237.9720758864903
 31
0.0
  0
LINE
  5
15C75
330
15C0B
100
AcDbEntity
  8
0
 62
     0
100
AcDbLine
 10
271.3418556825458
 20
235.7094034737725
 30
0.0
 11
271.4624761023279
 21
235.9183241692652
 31
0.0
  0
LINE
  5
15C76
330
15C0B
100
AcDbEntity
  8
0
 62
     0
100
AcDbLine
 10
273.3674761023278
 20
239.217880957684
 30
0.0
 11
274.3199761023278
 21
240.8676593518933
 31
0.0
  0
LINE
  5
15C77
330
15C0B
100
AcDbEntity
  8
0
 62
     0
100
AcDbLine
 10
276.2249761023278
 20
244.167216140312
 30
0.0
 11
276.8993039812753
 21
245.3351862876092
 31
0.0
  0
LINE
  5
15C78
330
15C0B
100
AcDbEntity
  8
0
 62
     0
100
AcDbLine
 10
273.3674767851185
 20
245.816994140312
 30
0.0
 11
274.3199767851185
 21
247.4667725345214
 31
0.0
  0
LINE
  5
15C79
330
15C0B
100
AcDbEntity
  8
0
 62
     0
100
AcDbLine
 10
276.2249767851184
 20
250.7663293229401
 30
0.0
 11
277.1774767851184
 21
252.4161077171494
 31
0.0
  0
LINE
  5
15C7A
330
15C0B
100
AcDbEntity
  8
0
 62
     0
100
AcDbLine
 10
273.3674774679091
 20
252.4161073229401
 30
0.0
 11
274.3199774679091
 21
254.0658857171495
 31
0.0
  0
LINE
  5
15C7B
330
15C0B
100
AcDbEntity
  8
0
 62
     0
100
AcDbLine
 10
276.2249774679091
 20
257.3654425055682
 30
0.0
 11
277.1774774679091
 21
259.0152208997775
 31
0.0
  0
LINE
  5
15C7C
330
15C0B
100
AcDbEntity
  8
0
 62
     0
100
AcDbLine
 10
273.3674781506997
 20
259.0152205055681
 30
0.0
 11
274.3199781506997
 21
260.6649988997775
 31
0.0
  0
LINE
  5
15C7D
330
15C0B
100
AcDbEntity
  8
0
 62
     0
100
AcDbLine
 10
276.2249781506997
 20
263.9645556881963
 30
0.0
 11
277.1774781506997
 21
265.6143340824056
 31
0.0
  0
LINE
  5
15C7E
330
15C0B
100
AcDbEntity
  8
0
 62
     0
100
AcDbLine
 10
279.0824781506996
 20
268.9138908708244
 30
0.0
 11
279.1532094128327
 21
269.0364010105223
 31
0.0
  0
LINE
  5
15C7F
330
15C0B
100
AcDbEntity
  8
0
 62
     0
100
AcDbLine
 10
273.8022928240552
 20
266.3674536116963
 30
0.0
 11
274.3199788334903
 21
267.2641120824055
 31
0.0
  0
LINE
  5
15C80
330
15C0B
100
AcDbEntity
  8
0
 62
     0
100
AcDbLine
 10
276.2249788334903
 20
270.5636688708243
 30
0.0
 11
277.1774788334903
 21
272.2134472650336
 31
0.0
  0
LINE
  5
15C81
330
15C0B
100
AcDbEntity
  8
0
 62
     0
100
AcDbLine
 10
279.0824788334902
 20
275.5130040534524
 30
0.0
 11
280.0349788334902
 21
277.1627824476617
 31
0.0
  0
LINE
  5
15C82
330
15C0B
100
AcDbEntity
  8
0
 62
     0
100
AcDbLine
 10
276.2249795162809
 20
277.1627820534523
 30
0.0
 11
277.1774795162809
 21
278.8125604476617
 31
0.0
  0
LINE
  5
15C83
330
15C0B
100
AcDbEntity
  8
0
 62
     0
100
AcDbLine
 10
279.0824795162809
 20
282.1121172360804
 30
0.0
 11
280.0349795162809
 21
283.7618956302898
 31
0.0
  0
LINE
  5
15C84
330
15C0B
100
AcDbEntity
  8
0
 62
     0
100
AcDbLine
 10
276.2249801990717
 20
283.7618952360804
 30
0.0
 11
276.7333519956622
 21
284.6424210169102
 31
0.0
  0
LINE
  5
15C85
330
15C0B
100
AcDbEntity
  8
0
 62
     0
100
AcDbLine
 10
271.2666775201149
 20
195.9845190768224
 30
0.0
 11
271.462472005584
 21
196.3236450734968
 31
0.0
  0
LINE
  5
15C86
330
15C0B
100
AcDbEntity
  8
0
 62
     0
100
AcDbLine
 10
273.367472005584
 20
199.6232018619155
 30
0.0
 11
274.319972005584
 21
201.2729802561249
 31
0.0
  0
LINE
  5
15C87
330
15C0B
100
AcDbEntity
  8
0
 62
     0
100
AcDbLine
 10
273.3674713227934
 20
193.0240886792874
 30
0.0
 11
274.3199713227934
 21
194.6738670734968
 31
0.0
  0
LINE
  5
15C88
330
15C0B
100
AcDbEntity
  8
0
 62
     0
100
AcDbLine
 10
273.3674706400027
 20
186.4249754966594
 30
0.0
 11
274.3199706400027
 21
188.0747538908688
 31
0.0
  0
LINE
  5
15C89
330
15C0B
100
AcDbEntity
  8
0
 62
     0
100
AcDbLine
 10
276.2249706400027
 20
191.3743106792875
 30
0.0
 11
276.4695745373293
 21
191.7979770571866
 31
0.0
  0
LINE
  5
15C8A
330
15C0B
100
AcDbEntity
  8
0
 62
     0
100
AcDbLine
 10
273.3674699572122
 20
179.8258623140313
 30
0.0
 11
274.3199699572122
 21
181.4756407082407
 31
0.0
  0
LINE
  5
15C8B
330
15C0B
100
AcDbEntity
  8
0
 62
     0
100
AcDbLine
 10
276.2249699572121
 20
184.7751974966594
 30
0.0
 11
276.8220078840191
 21
185.8092975199346
 31
0.0
  0
LINE
  5
15C8C
330
15C0B
100
AcDbEntity
  8
0
 62
     0
100
AcDbLine
 10
273.3674692744215
 20
173.2267491314033
 30
0.0
 11
274.3199692744215
 21
174.8765275256126
 31
0.0
  0
LINE
  5
15C8D
330
15C0B
100
AcDbEntity
  8
0
 62
     0
100
AcDbLine
 10
276.2249692744214
 20
178.1760843140313
 30
0.0
 11
277.1774692744214
 21
179.8258627082407
 31
0.0
  0
LINE
  5
15C8E
330
15C0B
100
AcDbEntity
  8
0
 62
     0
100
AcDbLine
 10
273.4519649084728
 20
166.7739878625979
 30
0.0
 11
274.3199685916308
 21
168.2774143429845
 31
0.0
  0
LINE
  5
15C8F
330
15C0B
100
AcDbEntity
  8
0
 62
     0
100
AcDbLine
 10
276.2249685916308
 20
171.5769711314032
 30
0.0
 11
277.1774685916308
 21
173.2267495256126
 31
0.0
  0
LINE
  5
15C90
330
15C0B
100
AcDbEntity
  8
0
 62
     0
100
AcDbLine
 10
274.0793214340306
 20
161.2614892393239
 30
0.0
 11
274.3199679088403
 21
161.6783011603565
 31
0.0
  0
LINE
  5
15C91
330
15C0B
100
AcDbEntity
  8
0
 62
     0
100
AcDbLine
 10
276.2249679088403
 20
164.9778579487751
 30
0.0
 11
277.1774679088403
 21
166.6276363429845
 31
0.0
  0
LINE
  5
15C92
330
15C0B
100
AcDbEntity
  8
0
 62
     0
100
AcDbLine
 10
276.2249672260496
 20
158.3787447661471
 30
0.0
 11
277.1774672260496
 21
160.0285231603565
 31
0.0
  0
LINE
  5
15C93
330
15C0B
100
AcDbEntity
  8
0
 62
     0
100
AcDbLine
 10
276.224966543259
 20
151.779631583519
 30
0.0
 11
277.177466543259
 21
153.4294099777284
 31
0.0
  0
LINE
  5
15C94
330
15C0B
100
AcDbEntity
  8
0
 62
     0
100
AcDbLine
 10
279.0824665432589
 20
156.7289667661471
 30
0.0
 11
279.5773512858817
 21
157.5861322842604
 31
0.0
  0
LINE
  5
15C95
330
15C0B
100
AcDbEntity
  8
0
 62
     0
100
AcDbLine
 10
276.4392590765722
 20
145.5516851389002
 30
0.0
 11
277.1774658604684
 21
146.8302967951003
 31
0.0
  0
LINE
  5
15C96
330
15C0B
100
AcDbEntity
  8
0
 62
     0
100
AcDbLine
 10
279.0824658604683
 20
150.129853583519
 30
0.0
 11
280.0349658604683
 21
151.7796319777284
 31
0.0
  0
ENDBLK
  5
15C97
330
15C0B
100
AcDbEntity
  8
0
100
AcDbBlockEnd
  0
BLOCK
  5
166B4
330
166B3
100
AcDbEntity
  8
0
100
AcDbBlockBegin
  2
*X7
 70
     1
 10
0.0
 20
0.0
 30
0.0
  3
*X7
  1

  0
LINE
  5
166B6
330
166B3
100
AcDbEntity
  8
0
 62
     0
100
AcDbLine
 10
330.4750816288134
 20
263.4946145678864
 30
0.0
 11
329.4750816288135
 21
264.4946145678864
 31
0.0
  0
LINE
  5
166B7
330
166B3
100
AcDbEntity
  8
0
 62
     0
100
AcDbLine
 10
332.596401972373
 20
263.4946145678864
 30
0.0
 11
331.5964019723732
 21
264.4946145678864
 31
0.0
  0
LINE
  5
166B8
330
166B3
100
AcDbEntity
  8
0
 62
     0
100
AcDbLine
 10
334.7177223159327
 20
263.4946145678864
 30
0.0
 11
333.3656983000879
 21
264.8466385837312
 31
0.0
  0
LINE
  5
166B9
330
166B3
100
AcDbEntity
  8
0
 62
     0
100
AcDbLine
 10
335.365698300088
 20
264.9679589272907
 30
0.0
 11
333.365698300088
 21
266.9679589272909
 31
0.0
  0
LINE
  5
166BA
330
166B3
100
AcDbEntity
  8
0
 62
     0
100
AcDbLine
 10
335.365698300088
 20
267.0892792708503
 30
0.0
 11
333.365698300088
 21
269.0892792708505
 31
0.0
  0
LINE
  5
166BB
330
166B3
100
AcDbEntity
  8
0
 62
     0
100
AcDbLine
 10
335.365698300088
 20
269.21059961441
 30
0.0
 11
333.365698300088
 21
271.2105996144102
 31
0.0
  0
LINE
  5
166BC
330
166B3
100
AcDbEntity
  8
0
 62
     0
100
AcDbLine
 10
335.365698300088
 20
271.3319199579696
 30
0.0
 11
333.365698300088
 21
273.3319199579697
 31
0.0
  0
LINE
  5
166BD
330
166B3
100
AcDbEntity
  8
0
 62
     0
100
AcDbLine
 10
335.365698300088
 20
273.4532403015293
 30
0.0
 11
333.365698300088
 21
275.4532403015293
 31
0.0
  0
LINE
  5
166BE
330
166B3
100
AcDbEntity
  8
0
 62
     0
100
AcDbLine
 10
335.365698300088
 20
275.5745606450889
 30
0.0
 11
333.365698300088
 21
277.574560645089
 31
0.0
  0
LINE
  5
166BF
330
166B3
100
AcDbEntity
  8
0
 62
     0
100
AcDbLine
 10
335.365698300088
 20
277.6958809886486
 30
0.0
 11
333.365698300088
 21
279.6958809886486
 31
0.0
  0
LINE
  5
166C0
330
166B3
100
AcDbEntity
  8
0
 62
     0
100
AcDbLine
 10
335.365698300088
 20
279.8172013322083
 30
0.0
 11
333.365698300088
 21
281.8172013322083
 31
0.0
  0
LINE
  5
166C1
330
166B3
100
AcDbEntity
  8
0
 62
     0
100
AcDbLine
 10
335.365698300088
 20
281.9385216757679
 30
0.0
 11
333.365698300088
 21
283.938521675768
 31
0.0
  0
LINE
  5
166C2
330
166B3
100
AcDbEntity
  8
0
 62
     0
100
AcDbLine
 10
335.365698300088
 20
284.0598420193276
 30
0.0
 11
333.365698300088
 21
286.0598420193277
 31
0.0
  0
LINE
  5
166C3
330
166B3
100
AcDbEntity
  8
0
 62
     0
100
AcDbLine
 10
335.365698300088
 20
286.1811623628871
 30
0.0
 11
333.365698300088
 21
288.1811623628872
 31
0.0
  0
LINE
  5
166C4
330
166B3
100
AcDbEntity
  8
0
 62
     0
100
AcDbLine
 10
335.365698300088
 20
288.3024827064467
 30
0.0
 11
333.6835544673626
 21
289.9846265391722
 31
0.0
  0
LINE
  5
166C5
330
166B3
100
AcDbEntity
  8
0
 62
     0
100
AcDbLine
 10
328.3537612852537
 20
263.4946145678864
 30
0.0
 11
327.3537612852539
 21
264.4946145678864
 31
0.0
  0
LINE
  5
166C6
330
166B3
100
AcDbEntity
  8
0
 62
     0
100
AcDbLine
 10
326.2324409416941
 20
263.4946145678864
 30
0.0
 11
325.2324409416943
 21
264.4946145678864
 31
0.0
  0
LINE
  5
166C7
330
166B3
100
AcDbEntity
  8
0
 62
     0
100
AcDbLine
 10
325.1111205981345
 20
262.4946145678864
 30
0.0
 11
323.1111205981346
 21
264.4946145678864
 31
0.0
  0
LINE
  5
166C8
330
166B3
100
AcDbEntity
  8
0
 62
     0
100
AcDbLine
 10
322.9898002545748
 20
262.4946145678864
 30
0.0
 11
320.989800254575
 21
264.4946145678864
 31
0.0
  0
LINE
  5
166C9
330
166B3
100
AcDbEntity
  8
0
 62
     0
100
AcDbLine
 10
320.8684799110153
 20
262.4946145678864
 30
0.0
 11
318.8684799110153
 21
264.4946145678864
 31
0.0
  0
LINE
  5
166CA
330
166B3
100
AcDbEntity
  8
0
 62
     0
100
AcDbLine
 10
318.7471595674556
 20
262.4946145678864
 30
0.0
 11
316.7471595674557
 21
264.4946145678864
 31
0.0
  0
LINE
  5
166CB
330
166B3
100
AcDbEntity
  8
0
 62
     0
100
AcDbLine
 10
316.6258392238959
 20
262.4946145678864
 30
0.0
 11
314.625839223896
 21
264.4946145678864
 31
0.0
  0
LINE
  5
166CC
330
166B3
100
AcDbEntity
  8
0
 62
     0
100
AcDbLine
 10
314.5045188803364
 20
262.4946145678864
 30
0.0
 11
312.5045188803365
 21
264.4946145678864
 31
0.0
  0
LINE
  5
166CD
330
166B3
100
AcDbEntity
  8
0
 62
     0
100
AcDbLine
 10
312.3831985367767
 20
262.4946145678864
 30
0.0
 11
310.3831985367768
 21
264.4946145678864
 31
0.0
  0
LINE
  5
166CE
330
166B3
100
AcDbEntity
  8
0
 62
     0
100
AcDbLine
 10
310.2618781932171
 20
262.4946145678864
 30
0.0
 11
308.2618781932171
 21
264.4946145678864
 31
0.0
  0
LINE
  5
166CF
330
166B3
100
AcDbEntity
  8
0
 62
     0
100
AcDbLine
 10
308.1405578496574
 20
262.4946145678864
 30
0.0
 11
306.1405578496575
 21
264.4946145678864
 31
0.0
  0
LINE
  5
166D0
330
166B3
100
AcDbEntity
  8
0
 62
     0
100
AcDbLine
 10
306.0192375060978
 20
262.4946145678864
 30
0.0
 11
304.0192375060978
 21
264.4946145678864
 31
0.0
  0
LINE
  5
166D1
330
166B3
100
AcDbEntity
  8
0
 62
     0
100
AcDbLine
 10
303.8979171625381
 20
262.4946145678864
 30
0.0
 11
302.8656983000881
 21
263.5268334303363
 31
0.0
  0
ENDBLK
  5
166D2
330
166B3
100
AcDbEntity
  8
0
100
AcDbBlockEnd
  0
BLOCK
  5
166E1
330
166E0
100
AcDbEntity
  8
0
100
AcDbBlockBegin
  2
*X8
 70
     1
 10
0.0
 20
0.0
 30
0.0
  3
*X8
  1

  0
LINE
  5
166E3
330
166E0
100
AcDbEntity
  8
0
 62
     0
100
AcDbLine
 10
330.8656983000881
 20
279.9540100546567
 30
0.0
 11
333.365698300088
 21
282.4540100546566
 31
0.0
  0
LINE
  5
166E4
330
166E0
100
AcDbEntity
  8
0
 62
     0
100
AcDbLine
 10
330.8656983000881
 20
282.0753303982163
 30
0.0
 11
333.365698300088
 21
284.5753303982162
 31
0.0
  0
LINE
  5
166E5
330
166E0
100
AcDbEntity
  8
0
 62
     0
100
AcDbLine
 10
330.8656983000881
 20
284.196650741776
 30
0.0
 11
333.365698300088
 21
286.6966507417759
 31
0.0
  0
LINE
  5
166E6
330
166E0
100
AcDbEntity
  8
0
 62
     0
100
AcDbLine
 10
330.8656983000881
 20
286.3179710853356
 30
0.0
 11
333.365698300088
 21
288.8179710853355
 31
0.0
  0
LINE
  5
166E7
330
166E0
100
AcDbEntity
  8
0
 62
     0
100
AcDbLine
 10
330.8656983000881
 20
288.4392914288952
 30
0.0
 11
333.365698300088
 21
290.9392914288952
 31
0.0
  0
LINE
  5
166E8
330
166E0
100
AcDbEntity
  8
0
 62
     0
100
AcDbLine
 10
330.8656983000881
 20
290.5606117724549
 30
0.0
 11
333.8763631031336
 21
293.5712765755003
 31
0.0
  0
LINE
  5
166E9
330
166E0
100
AcDbEntity
  8
0
 62
     0
100
AcDbLine
 10
335.5997010955197
 20
295.2946145678865
 30
0.0
 11
336.8656983000902
 21
296.560611772457
 31
0.0
  0
LINE
  5
166EA
330
166E0
100
AcDbEntity
  8
0
 62
     0
100
AcDbLine
 10
331.2403333963442
 20
293.0565672122706
 30
0.0
 11
335.4409172423344
 21
297.2571510582609
 31
0.0
  0
LINE
  5
166EB
330
166E0
100
AcDbEntity
  8
0
 62
     0
100
AcDbLine
 10
330.8656983000881
 20
277.832689711097
 30
0.0
 11
333.365698300088
 21
280.3326897110969
 31
0.0
  0
LINE
  5
166EC
330
166E0
100
AcDbEntity
  8
0
 62
     0
100
AcDbLine
 10
330.8656983000881
 20
275.7113693675374
 30
0.0
 11
333.365698300088
 21
278.2113693675373
 31
0.0
  0
LINE
  5
166ED
330
166E0
100
AcDbEntity
  8
0
 62
     0
100
AcDbLine
 10
330.8656983000881
 20
273.5900490239778
 30
0.0
 11
333.365698300088
 21
276.0900490239777
 31
0.0
  0
LINE
  5
166EE
330
166E0
100
AcDbEntity
  8
0
 62
     0
100
AcDbLine
 10
330.8656983000881
 20
271.4687286804181
 30
0.0
 11
333.365698300088
 21
273.968728680418
 31
0.0
  0
LINE
  5
166EF
330
166E0
100
AcDbEntity
  8
0
 62
     0
100
AcDbLine
 10
330.8656983000881
 20
269.3474083368585
 30
0.0
 11
333.365698300088
 21
271.8474083368584
 31
0.0
  0
LINE
  5
166F0
330
166E0
100
AcDbEntity
  8
0
 62
     0
100
AcDbLine
 10
330.8656983000881
 20
267.2260879932988
 30
0.0
 11
333.365698300088
 21
269.7260879932987
 31
0.0
  0
LINE
  5
166F1
330
166E0
100
AcDbEntity
  8
0
 62
     0
100
AcDbLine
 10
332.0055452182352
 20
266.2446145678863
 30
0.0
 11
333.365698300088
 21
267.6047676497391
 31
0.0
  0
ENDBLK
  5
166F2
330
166E0
100
AcDbEntity
  8
0
100
AcDbBlockEnd
  0
BLOCK
  5
166F4
330
166F3
100
AcDbEntity
  8
0
100
AcDbBlockBegin
  2
*X9
 70
     1
 10
0.0
 20
0.0
 30
0.0
  3
*X9
  1

  0
LINE
  5
166F6
330
166F3
100
AcDbEntity
  8
0
 62
     0
100
AcDbLine
 10
302.9210214390791
 20
260.4946145678862
 30
0.0
 11
304.9210214390791
 21
262.4946145678862
 31
0.0
  0
LINE
  5
166F7
330
166F3
100
AcDbEntity
  8
0
 62
     0
100
AcDbLine
 10
300.8656983000882
 20
260.560611772455
 30
0.0
 11
302.8656983000881
 21
262.5606117724549
 31
0.0
  0
LINE
  5
166F8
330
166F3
100
AcDbEntity
  8
0
 62
     0
100
AcDbLine
 10
300.8656983000882
 20
262.6819321160147
 30
0.0
 11
302.8656983000881
 21
264.6819321160145
 31
0.0
  0
LINE
  5
166F9
330
166F3
100
AcDbEntity
  8
0
 62
     0
100
AcDbLine
 10
300.8656983000882
 20
264.8032524595743
 30
0.0
 11
302.8656983000881
 21
266.8032524595741
 31
0.0
  0
LINE
  5
166FA
330
166F3
100
AcDbEntity
  8
0
 62
     0
100
AcDbLine
 10
300.8656983000882
 20
266.9245728031339
 30
0.0
 11
302.8656983000881
 21
268.9245728031338
 31
0.0
  0
LINE
  5
166FB
330
166F3
100
AcDbEntity
  8
0
 62
     0
100
AcDbLine
 10
300.8656983000882
 20
269.0458931466935
 30
0.0
 11
301.3144197212808
 21
269.4946145678862
 31
0.0
  0
LINE
  5
166FC
330
166F3
100
AcDbEntity
  8
0
 62
     0
100
AcDbLine
 10
305.0423417826387
 20
260.4946145678862
 30
0.0
 11
307.0423417826388
 21
262.4946145678862
 31
0.0
  0
LINE
  5
166FD
330
166F3
100
AcDbEntity
  8
0
 62
     0
100
AcDbLine
 10
307.1636621261983
 20
260.4946145678862
 30
0.0
 11
309.1636621261983
 21
262.4946145678862
 31
0.0
  0
LINE
  5
166FE
330
166F3
100
AcDbEntity
  8
0
 62
     0
100
AcDbLine
 10
309.284982469758
 20
260.4946145678862
 30
0.0
 11
311.284982469758
 21
262.4946145678862
 31
0.0
  0
LINE
  5
166FF
330
166F3
100
AcDbEntity
  8
0
 62
     0
100
AcDbLine
 10
311.4063028133176
 20
260.4946145678862
 30
0.0
 11
313.4063028133177
 21
262.4946145678862
 31
0.0
  0
LINE
  5
16700
330
166F3
100
AcDbEntity
  8
0
 62
     0
100
AcDbLine
 10
313.5276231568773
 20
260.4946145678862
 30
0.0
 11
315.5276231568773
 21
262.4946145678862
 31
0.0
  0
LINE
  5
16701
330
166F3
100
AcDbEntity
  8
0
 62
     0
100
AcDbLine
 10
315.6489435004369
 20
260.4946145678862
 30
0.0
 11
317.1673756294156
 21
262.013046696865
 31
0.0
  0
LINE
  5
16702
330
166F3
100
AcDbEntity
  8
0
 62
     0
100
AcDbLine
 10
317.7702638439966
 20
260.4946145678862
 30
0.0
 11
317.8635228082917
 21
260.5878735321813
 31
0.0
  0
ENDBLK
  5
16703
330
166F3
100
AcDbEntity
  8
0
100
AcDbBlockEnd
  0
BLOCK
  5
167BE
330
167BD
100
AcDbEntity
  8
0
100
AcDbBlockBegin
  2
*X10
 70
     1
 10
0.0
 20
0.0
 30
0.0
  3
*X10
  1

  0
LINE
  5
167C0
330
167BD
100
AcDbEntity
  8
0
 62
     0
100
AcDbLine
 10
305.4385017023544
 20
165.4946145678862
 30
0.0
 11
303.4385017023544
 21
167.4946145678862
 31
0.0
  0
LINE
  5
167C1
330
167BD
100
AcDbEntity
  8
0
 62
     0
100
AcDbLine
 10
307.5598220459141
 20
165.4946145678862
 30
0.0
 11
305.559822045914
 21
167.4946145678862
 31
0.0
  0
LINE
  5
167C2
330
167BD
100
AcDbEntity
  8
0
 62
     0
100
AcDbLine
 10
335.1711543607596
 20
140.0046025966003
 30
0.0
 11
333.365698300088
 21
141.8100586572718
 31
0.0
  0
LINE
  5
167C3
330
167BD
100
AcDbEntity
  8
0
 62
     0
100
AcDbLine
 10
309.6811423894737
 20
165.4946145678862
 30
0.0
 11
307.6811423894737
 21
167.4946145678862
 31
0.0
  0
LINE
  5
167C4
330
167BD
100
AcDbEntity
  8
0
 62
     0
100
AcDbLine
 10
335.3656983000879
 20
141.9313790008315
 30
0.0
 11
333.365698300088
 21
143.9313790008315
 31
0.0
  0
LINE
  5
167C5
330
167BD
100
AcDbEntity
  8
0
 62
     0
100
AcDbLine
 10
311.8024627330334
 20
165.4946145678862
 30
0.0
 11
309.8024627330333
 21
167.4946145678862
 31
0.0
  0
LINE
  5
167C6
330
167BD
100
AcDbEntity
  8
0
 62
     0
100
AcDbLine
 10
335.3656983000879
 20
144.0526993443912
 30
0.0
 11
333.365698300088
 21
146.0526993443911
 31
0.0
  0
LINE
  5
167C7
330
167BD
100
AcDbEntity
  8
0
 62
     0
100
AcDbLine
 10
313.9237830765929
 20
165.4946145678862
 30
0.0
 11
311.9237830765929
 21
167.4946145678862
 31
0.0
  0
LINE
  5
167C8
330
167BD
100
AcDbEntity
  8
0
 62
     0
100
AcDbLine
 10
335.365698300088
 20
146.1740196879508
 30
0.0
 11
333.365698300088
 21
148.1740196879508
 31
0.0
  0
LINE
  5
167C9
330
167BD
100
AcDbEntity
  8
0
 62
     0
100
AcDbLine
 10
316.0451034201526
 20
165.4946145678862
 30
0.0
 11
314.0451034201526
 21
167.4946145678862
 31
0.0
  0
LINE
  5
167CA
330
167BD
100
AcDbEntity
  8
0
 62
     0
100
AcDbLine
 10
335.365698300088
 20
148.2953400315104
 30
0.0
 11
333.365698300088
 21
150.2953400315104
 31
0.0
  0
LINE
  5
167CB
330
167BD
100
AcDbEntity
  8
0
 62
     0
100
AcDbLine
 10
318.1664237637122
 20
165.4946145678862
 30
0.0
 11
316.1664237637122
 21
167.4946145678862
 31
0.0
  0
LINE
  5
167CC
330
167BD
100
AcDbEntity
  8
0
 62
     0
100
AcDbLine
 10
335.365698300088
 20
150.4166603750701
 30
0.0
 11
333.365698300088
 21
152.4166603750701
 31
0.0
  0
LINE
  5
167CD
330
167BD
100
AcDbEntity
  8
0
 62
     0
100
AcDbLine
 10
320.2877441072719
 20
165.4946145678862
 30
0.0
 11
318.2877441072719
 21
167.4946145678862
 31
0.0
  0
LINE
  5
167CE
330
167BD
100
AcDbEntity
  8
0
 62
     0
100
AcDbLine
 10
335.365698300088
 20
152.5379807186297
 30
0.0
 11
333.365698300088
 21
154.5379807186297
 31
0.0
  0
LINE
  5
167CF
330
167BD
100
AcDbEntity
  8
0
 62
     0
100
AcDbLine
 10
322.4090644508315
 20
165.4946145678862
 30
0.0
 11
320.4090644508315
 21
167.4946145678862
 31
0.0
  0
LINE
  5
167D0
330
167BD
100
AcDbEntity
  8
0
 62
     0
100
AcDbLine
 10
335.365698300088
 20
154.6593010621893
 30
0.0
 11
333.365698300088
 21
156.6593010621893
 31
0.0
  0
LINE
  5
167D1
330
167BD
100
AcDbEntity
  8
0
 62
     0
100
AcDbLine
 10
324.5303847943912
 20
165.4946145678862
 30
0.0
 11
322.5303847943912
 21
167.4946145678862
 31
0.0
  0
LINE
  5
167D2
330
167BD
100
AcDbEntity
  8
0
 62
     0
100
AcDbLine
 10
335.365698300088
 20
156.780621405749
 30
0.0
 11
333.365698300088
 21
158.780621405749
 31
0.0
  0
LINE
  5
167D3
330
167BD
100
AcDbEntity
  8
0
 62
     0
100
AcDbLine
 10
325.365698300088
 20
166.7806214057491
 30
0.0
 11
324.6517051379508
 21
167.4946145678862
 31
0.0
  0
LINE
  5
167D4
330
167BD
100
AcDbEntity
  8
0
 62
     0
100
AcDbLine
 10
326.6517051379508
 20
165.4946145678862
 30
0.0
 11
325.6517051379508
 21
166.4946145678861
 31
0.0
  0
LINE
  5
167D5
330
167BD
100
AcDbEntity
  8
0
 62
     0
100
AcDbLine
 10
335.365698300088
 20
158.9019417493086
 30
0.0
 11
333.365698300088
 21
160.9019417493087
 31
0.0
  0
LINE
  5
167D6
330
167BD
100
AcDbEntity
  8
0
 62
     0
100
AcDbLine
 10
328.7730254815105
 20
165.4946145678862
 30
0.0
 11
327.7730254815105
 21
166.4946145678861
 31
0.0
  0
LINE
  5
167D7
330
167BD
100
AcDbEntity
  8
0
 62
     0
100
AcDbLine
 10
335.365698300088
 20
161.0232620928682
 30
0.0
 11
333.365698300088
 21
163.0232620928683
 31
0.0
  0
LINE
  5
167D8
330
167BD
100
AcDbEntity
  8
0
 62
     0
100
AcDbLine
 10
330.8943458250701
 20
165.4946145678862
 30
0.0
 11
329.8943458250701
 21
166.4946145678861
 31
0.0
  0
LINE
  5
167D9
330
167BD
100
AcDbEntity
  8
0
 62
     0
100
AcDbLine
 10
335.365698300088
 20
163.1445824364279
 30
0.0
 11
333.365698300088
 21
165.1445824364279
 31
0.0
  0
LINE
  5
167DA
330
167BD
100
AcDbEntity
  8
0
 62
     0
100
AcDbLine
 10
333.0156661686298
 20
165.4946145678862
 30
0.0
 11
332.0156661686298
 21
166.4946145678861
 31
0.0
  0
LINE
  5
167DB
330
167BD
100
AcDbEntity
  8
0
 62
     0
100
AcDbLine
 10
335.365698300088
 20
165.2659027799874
 30
0.0
 11
334.1369865121894
 21
166.4946145678861
 31
0.0
  0
LINE
  5
167DC
330
167BD
100
AcDbEntity
  8
0
 62
     0
100
AcDbLine
 10
303.3171813587948
 20
165.4946145678862
 30
0.0
 11
302.8656983000881
 21
165.9460976265929
 31
0.0
  0
ENDBLK
  5
167DD
330
167BD
100
AcDbEntity
  8
0
100
AcDbBlockEnd
  0
BLOCK
  5
1687C
330
1687B
100
AcDbEntity
  8
0
100
AcDbBlockBegin
  2
*X11
 70
     1
 10
0.0
 20
0.0
 30
0.0
  3
*X11
  1

  0
LINE
  5
1687E
330
1687B
100
AcDbEntity
  8
0
 62
     0
100
AcDbLine
 10
311.7443979299419
 20
167.4946145678861
 30
0.0
 11
313.7443979299419
 21
169.4946145678861
 31
0.0
  0
LINE
  5
1687F
330
1687B
100
AcDbEntity
  8
0
 62
     0
100
AcDbLine
 10
302.6230775863822
 20
160.4946145678861
 30
0.0
 11
302.8656983000881
 21
160.737235281592
 31
0.0
  0
LINE
  5
16880
330
1687B
100
AcDbEntity
  8
0
 62
     0
100
AcDbLine
 10
309.6230775863822
 20
167.4946145678861
 30
0.0
 11
311.6230775863822
 21
169.4946145678861
 31
0.0
  0
LINE
  5
16881
330
1687B
100
AcDbEntity
  8
0
 62
     0
100
AcDbLine
 10
300.8656983000882
 20
160.8585556251517
 30
0.0
 11
302.8656983000881
 21
162.8585556251517
 31
0.0
  0
LINE
  5
16882
330
1687B
100
AcDbEntity
  8
0
 62
     0
100
AcDbLine
 10
307.5017572428226
 20
167.4946145678861
 30
0.0
 11
309.5017572428226
 21
169.4946145678861
 31
0.0
  0
LINE
  5
16883
330
1687B
100
AcDbEntity
  8
0
 62
     0
100
AcDbLine
 10
300.8656983000882
 20
162.9798759687114
 30
0.0
 11
302.8656983000881
 21
164.9798759687113
 31
0.0
  0
LINE
  5
16884
330
1687B
100
AcDbEntity
  8
0
 62
     0
100
AcDbLine
 10
305.3804368992629
 20
167.4946145678861
 30
0.0
 11
307.3804368992629
 21
169.4946145678861
 31
0.0
  0
LINE
  5
16885
330
1687B
100
AcDbEntity
  8
0
 62
     0
100
AcDbLine
 10
300.8656983000882
 20
165.1011963122711
 30
0.0
 11
302.8656983000882
 21
167.101196312271
 31
0.0
  0
LINE
  5
16886
330
1687B
100
AcDbEntity
  8
0
 62
     0
100
AcDbLine
 10
303.2591165557033
 20
167.4946145678861
 30
0.0
 11
305.2591165557033
 21
169.4946145678861
 31
0.0
  0
LINE
  5
16887
330
1687B
100
AcDbEntity
  8
0
 62
     0
100
AcDbLine
 10
300.8656983000883
 20
167.2225166558307
 30
0.0
 11
303.1377962121437
 21
169.4946145678861
 31
0.0
  0
LINE
  5
16888
330
1687B
100
AcDbEntity
  8
0
 62
     0
100
AcDbLine
 10
300.8656983000883
 20
169.3438369993904
 30
0.0
 11
301.016475868584
 21
169.4946145678861
 31
0.0
  0
LINE
  5
16889
330
1687B
100
AcDbEntity
  8
0
 62
     0
100
AcDbLine
 10
313.8657182735015
 20
167.4946145678861
 30
0.0
 11
315.8657182735015
 21
169.4946145678861
 31
0.0
  0
LINE
  5
1688A
330
1687B
100
AcDbEntity
  8
0
 62
     0
100
AcDbLine
 10
315.9909654358639
 20
167.498541386689
 30
0.0
 11
317.8617714812854
 21
169.3693474321104
 31
0.0
  0
ENDBLK
  5
1688B
330
1687B
100
AcDbEntity
  8
0
100
AcDbBlockEnd
  0
BLOCK
  5
168D6
330
168D5
100
AcDbEntity
  8
0
100
AcDbBlockBegin
  2
*X12
 70
     1
 10
0.0
 20
0.0
 30
0.0
  3
*X12
  1

  0
LINE
  5
168D8
330
168D5
100
AcDbEntity
  8
0
 62
     0
100
AcDbLine
 10
337.1849999999999
 20
283.761816
 30
0.0
 11
339.0899999999999
 21
283.761816
 31
0.0
  0
LINE
  5
168D9
330
168D5
100
AcDbEntity
  8
0
 62
     0
100
AcDbLine
 10
337.1849999999999
 20
287.061372
 30
0.0
 11
339.0899999999999
 21
287.061372
 31
0.0
  0
LINE
  5
168DA
330
168D5
100
AcDbEntity
  8
0
 62
     0
100
AcDbLine
 10
333.365698300088
 20
290.3609279999999
 30
0.0
 11
333.3749999999999
 21
290.3609279999999
 31
0.0
  0
LINE
  5
168DB
330
168D5
100
AcDbEntity
  8
0
 62
     0
100
AcDbLine
 10
337.1849999999999
 20
290.3609279999999
 30
0.0
 11
339.0899999999999
 21
290.3609279999999
 31
0.0
  0
LINE
  5
168DC
330
168D5
100
AcDbEntity
  8
0
 62
     0
100
AcDbLine
 10
337.1849999999999
 20
293.6604839999999
 30
0.0
 11
339.0899999999999
 21
293.6604839999999
 31
0.0
  0
LINE
  5
168DD
330
168D5
100
AcDbEntity
  8
0
 62
     0
100
AcDbLine
 10
337.1849999999999
 20
280.46226
 30
0.0
 11
339.0899999999999
 21
280.46226
 31
0.0
  0
LINE
  5
168DE
330
168D5
100
AcDbEntity
  8
0
 62
     0
100
AcDbLine
 10
337.1849999999999
 20
277.162704
 30
0.0
 11
339.0899999999999
 21
277.162704
 31
0.0
  0
LINE
  5
168DF
330
168D5
100
AcDbEntity
  8
0
 62
     0
100
AcDbLine
 10
340.0424105544272
 20
275.5129401915367
 30
0.0
 11
339.0899105544272
 21
277.1627185857461
 31
0.0
  0
LINE
  5
168E0
330
168D5
100
AcDbEntity
  8
0
 62
     0
100
AcDbLine
 10
337.1849105544272
 20
280.4622753741648
 30
0.0
 11
336.2324105544272
 21
282.1120537683741
 31
0.0
  0
LINE
  5
168E1
330
168D5
100
AcDbEntity
  8
0
 62
     0
100
AcDbLine
 10
336.3584618224001
 20
275.2946145678865
 30
0.0
 11
336.2324112372178
 21
275.5129405857461
 31
0.0
  0
LINE
  5
168E2
330
168D5
100
AcDbEntity
  8
0
 62
     0
100
AcDbLine
 10
340.0424098716366
 20
282.1120533741648
 30
0.0
 11
339.0899098716366
 21
283.7618317683741
 31
0.0
  0
LINE
  5
168E3
330
168D5
100
AcDbEntity
  8
0
 62
     0
100
AcDbLine
 10
337.1849098716367
 20
287.0613885567928
 30
0.0
 11
336.2324098716367
 21
288.7111669510022
 31
0.0
  0
LINE
  5
168E4
330
168D5
100
AcDbEntity
  8
0
 62
     0
100
AcDbLine
 10
334.3274098716367
 20
292.0107237394209
 30
0.0
 11
333.6922167041706
 21
293.1109105780927
 31
0.0
  0
LINE
  5
168E5
330
168D5
100
AcDbEntity
  8
0
 62
     0
100
AcDbLine
 10
340.0424091888459
 20
288.7111665567929
 30
0.0
 11
339.0899091888459
 21
290.3609449510022
 31
0.0
  0
LINE
  5
168E6
330
168D5
100
AcDbEntity
  8
0
 62
     0
100
AcDbLine
 10
337.184909188846
 20
293.660501739421
 30
0.0
 11
336.2414537074451
 21
295.2946145678865
 31
0.0
  0
LINE
  5
168E7
330
168D5
100
AcDbEntity
  8
0
 62
     0
100
AcDbLine
 10
336.2324699572122
 20
288.7112363318488
 30
0.0
 11
337.1849699572122
 21
290.3610147260581
 31
0.0
  0
LINE
  5
168E8
330
168D5
100
AcDbEntity
  8
0
 62
     0
100
AcDbLine
 10
339.0899699572121
 20
293.6605715144769
 30
0.0
 11
340.0333851539656
 21
295.2946145678865
 31
0.0
  0
LINE
  5
168E9
330
168D5
100
AcDbEntity
  8
0
 62
     0
100
AcDbLine
 10
333.3749706400028
 20
290.3610143318488
 30
0.0
 11
334.3274706400028
 21
292.0107927260581
 31
0.0
  0
LINE
  5
168EA
330
168D5
100
AcDbEntity
  8
0
 62
     0
100
AcDbLine
 10
336.2324692744215
 20
282.1121231492207
 30
0.0
 11
337.1849692744215
 21
283.7619015434301
 31
0.0
  0
LINE
  5
168EB
330
168D5
100
AcDbEntity
  8
0
 62
     0
100
AcDbLine
 10
339.0899692744215
 20
287.0614583318488
 30
0.0
 11
340.0424692744215
 21
288.7112367260581
 31
0.0
  0
LINE
  5
168EC
330
168D5
100
AcDbEntity
  8
0
 62
     0
100
AcDbLine
 10
336.232468591631
 20
275.5130099665926
 30
0.0
 11
337.184968591631
 21
277.162788360802
 31
0.0
  0
LINE
  5
168ED
330
168D5
100
AcDbEntity
  8
0
 62
     0
100
AcDbLine
 10
339.0899685916309
 20
280.4623451492207
 30
0.0
 11
340.0424685916309
 21
282.1121235434301
 31
0.0
  0
LINE
  5
168EE
330
168D5
100
AcDbEntity
  8
0
 62
     0
100
AcDbLine
 10
339.9163770390107
 20
275.2946145678865
 30
0.0
 11
340.0424679088403
 21
275.5130103608019
 31
0.0
  0
ENDBLK
  5
168EF
330
168D5
100
AcDbEntity
  8
0
100
AcDbBlockEnd
  0
BLOCK
  5
16925
330
16924
100
AcDbEntity
  8
0
100
AcDbBlockBegin
  2
*X13
 70
     1
 10
0.0
 20
0.0
 30
0.0
  3
*X13
  1

  0
LINE
  5
16927
330
16924
100
AcDbEntity
  8
0
 62
     0
100
AcDbLine
 10
330.8656983000881
 20
146.3108284103992
 30
0.0
 11
333.3656983000881
 21
148.8108284103991
 31
0.0
  0
LINE
  5
16928
330
16924
100
AcDbEntity
  8
0
 62
     0
100
AcDbLine
 10
330.8656983000881
 20
148.4321487539588
 30
0.0
 11
333.3656983000881
 21
150.9321487539588
 31
0.0
  0
LINE
  5
16929
330
16924
100
AcDbEntity
  8
0
 62
     0
100
AcDbLine
 10
330.8656983000881
 20
150.5534690975185
 30
0.0
 11
333.3656983000881
 21
153.0534690975184
 31
0.0
  0
LINE
  5
1692A
330
16924
100
AcDbEntity
  8
0
 62
     0
100
AcDbLine
 10
330.8656983000881
 20
152.6747894410781
 30
0.0
 11
333.3656983000881
 21
155.1747894410781
 31
0.0
  0
LINE
  5
1692B
330
16924
100
AcDbEntity
  8
0
 62
     0
100
AcDbLine
 10
330.8656983000881
 20
154.7961097846378
 30
0.0
 11
333.3656983000881
 21
157.2961097846377
 31
0.0
  0
LINE
  5
1692C
330
16924
100
AcDbEntity
  8
0
 62
     0
100
AcDbLine
 10
330.8656983000881
 20
156.9174301281974
 30
0.0
 11
333.3656983000881
 21
159.4174301281974
 31
0.0
  0
LINE
  5
1692D
330
16924
100
AcDbEntity
  8
0
 62
     0
100
AcDbLine
 10
330.8656983000881
 20
159.038750471757
 30
0.0
 11
333.3656983000881
 21
161.538750471757
 31
0.0
  0
LINE
  5
1692E
330
16924
100
AcDbEntity
  8
0
 62
     0
100
AcDbLine
 10
330.8656983000881
 20
161.1600708153167
 30
0.0
 11
333.3656983000881
 21
163.6600708153166
 31
0.0
  0
LINE
  5
1692F
330
16924
100
AcDbEntity
  8
0
 62
     0
100
AcDbLine
 10
330.8656983000881
 20
163.2813911588763
 30
0.0
 11
331.328921709098
 21
163.7446145678863
 31
0.0
  0
LINE
  5
16930
330
16924
100
AcDbEntity
  8
0
 62
     0
100
AcDbLine
 10
330.8656983000881
 20
144.1895080668395
 30
0.0
 11
333.3656983000881
 21
146.6895080668394
 31
0.0
  0
LINE
  5
16931
330
16924
100
AcDbEntity
  8
0
 62
     0
100
AcDbLine
 10
330.8656983000881
 20
142.0681877232799
 30
0.0
 11
333.365698300088
 21
144.5681877232798
 31
0.0
  0
LINE
  5
16932
330
16924
100
AcDbEntity
  8
0
 62
     0
100
AcDbLine
 10
330.8656983000881
 20
139.9468673797202
 30
0.0
 11
333.365698300088
 21
142.4468673797202
 31
0.0
  0
LINE
  5
16933
330
16924
100
AcDbEntity
  8
0
 62
     0
100
AcDbLine
 10
330.865698300088
 20
137.8255470361606
 30
0.0
 11
333.365698300088
 21
140.3255470361605
 31
0.0
  0
LINE
  5
16934
330
16924
100
AcDbEntity
  8
0
 62
     0
100
AcDbLine
 10
331.5818534502021
 20
136.420381842715
 30
0.0
 11
333.365698300088
 21
138.2042266926009
 31
0.0
  0
LINE
  5
16935
330
16924
100
AcDbEntity
  8
0
 62
     0
100
AcDbLine
 10
332.430381587626
 20
135.1475896365792
 30
0.0
 11
333.8261863626152
 21
136.5433944115684
 31
0.0
  0
LINE
  5
16936
330
16924
100
AcDbEntity
  8
0
 62
     0
100
AcDbLine
 10
333.2789097250499
 20
133.8747974304435
 30
0.0
 11
334.4322778893464
 21
135.02816559474
 31
0.0
  0
LINE
  5
16937
330
16924
100
AcDbEntity
  8
0
 62
     0
100
AcDbLine
 10
334.4265687909145
 20
132.9011361527484
 30
0.0
 11
336.2200472060522
 21
134.6946145678861
 31
0.0
  0
LINE
  5
16938
330
16924
100
AcDbEntity
  8
0
 62
     0
100
AcDbLine
 10
336.2448433711084
 20
132.5980903893827
 30
0.0
 11
336.8656983000898
 21
133.2189453183641
 31
0.0
  0
ENDBLK
  5
16939
330
16924
100
AcDbEntity
  8
0
100
AcDbBlockEnd
  0
BLOCK
  5
169F6
330
169F5
100
AcDbEntity
  8
0
100
AcDbBlockBegin
  2
*X14
 70
     1
 10
0.0
 20
0.0
 30
0.0
  3
*X14
  1

  0
LINE
  5
169F8
330
169F5
100
AcDbEntity
  8
0
 62
     0
100
AcDbLine
 10
271.2507499229507
 20
233.6234918442442
 30
0.0
 11
269.3321209793481
 21
235.5421207878468
 31
0.0
  0
LINE
  5
169F9
330
169F5
100
AcDbEntity
  8
0
 62
     0
100
AcDbLine
 10
271.3394094592262
 20
235.6561526515283
 30
0.0
 11
269.4286353381029
 21
237.5669267726516
 31
0.0
  0
LINE
  5
169FA
330
169F5
100
AcDbEntity
  8
0
 62
     0
100
AcDbLine
 10
271.4368216540061
 20
237.6800608003081
 30
0.0
 11
269.5337686841698
 21
239.5831137701445
 31
0.0
  0
LINE
  5
169FB
330
169F5
100
AcDbEntity
  8
0
 62
     0
100
AcDbLine
 10
271.5428799771457
 20
239.695322820728
 30
0.0
 11
269.6474177794102
 21
241.5907850184637
 31
0.0
  0
LINE
  5
169FC
330
169F5
100
AcDbEntity
  8
0
 62
     0
100
AcDbLine
 10
271.6574805535832
 20
241.7020425878503
 30
0.0
 11
269.7694819262466
 21
243.5900412151869
 31
0.0
  0
LINE
  5
169FD
330
169F5
100
AcDbEntity
  8
0
 62
     0
100
AcDbLine
 10
271.7805220730738
 20
243.7003214119194
 30
0.0
 11
269.8998628824378
 21
245.5809806025554
 31
0.0
  0
LINE
  5
169FE
330
169F5
100
AcDbEntity
  8
0
 62
     0
100
AcDbLine
 10
271.9119057038739
 20
245.6902581246788
 30
0.0
 11
270.0384647795341
 21
247.5636990490186
 31
0.0
  0
LINE
  5
169FF
330
169F5
100
AcDbEntity
  8
0
 62
     0
100
AcDbLine
 10
272.0515350101638
 20
247.6719491619486
 30
0.0
 11
270.1851940448205
 21
249.538290127292
 31
0.0
  0
LINE
  5
16A00
330
169F5
100
AcDbEntity
  8
0
 62
     0
100
AcDbLine
 10
272.1993158730143
 20
249.6454886426578
 30
0.0
 11
270.3399593265664
 21
251.5048451891058
 31
0.0
  0
LINE
  5
16A01
330
169F5
100
AcDbEntity
  8
0
 62
     0
100
AcDbLine
 10
272.3551564147123
 20
251.6109684445193
 30
0.0
 11
270.502671422413
 21
253.4634534368186
 31
0.0
  0
LINE
  5
16A02
330
169F5
100
AcDbEntity
  8
0
 62
     0
100
AcDbLine
 10
272.5189669262718
 20
253.5684782765195
 30
0.0
 11
270.6732432107385
 21
255.4142019920529
 31
0.0
  0
LINE
  5
16A03
330
169F5
100
AcDbEntity
  8
0
 62
     0
100
AcDbLine
 10
272.6906597979687
 20
255.5181057483823
 30
0.0
 11
270.8515895848499
 21
257.3571759615011
 31
0.0
  0
LINE
  5
16A04
330
169F5
100
AcDbEntity
  8
0
 62
     0
100
AcDbLine
 10
272.8701494527462
 20
257.4599364371644
 30
0.0
 11
271.0376273898613
 21
259.2924585000494
 31
0.0
  0
LINE
  5
16A05
330
169F5
100
AcDbEntity
  8
0
 62
     0
100
AcDbLine
 10
273.0573522823462
 20
259.3940539511241
 30
0.0
 11
271.2312753621264
 21
261.2201308713439
 31
0.0
  0
LINE
  5
16A06
330
169F5
100
AcDbEntity
  8
0
 62
     0
100
AcDbLine
 10
273.2521865860328
 20
261.320539990997
 30
0.0
 11
271.4324540710975
 21
263.1402725059325
 31
0.0
  0
LINE
  5
16A07
330
169F5
100
AcDbEntity
  8
0
 62
     0
100
AcDbLine
 10
273.4545725117793
 20
263.2394744088102
 30
0.0
 11
271.6410858634964
 21
265.0529610570931
 31
0.0
  0
LINE
  5
16A08
330
169F5
100
AcDbEntity
  8
0
 62
     0
100
AcDbLine
 10
273.6644319997985
 20
265.1509352643506
 30
0.0
 11
271.8570948096822
 21
266.9582724544669
 31
0.0
  0
LINE
  5
16A09
330
169F5
100
AcDbEntity
  8
0
 62
     0
100
AcDbLine
 10
273.8816887283046
 20
267.0549988794042
 30
0.0
 11
272.0804066521148
 21
268.8562809555941
 31
0.0
  0
LINE
  5
16A0A
330
169F5
100
AcDbEntity
  8
0
 62
     0
100
AcDbLine
 10
274.1062680613982
 20
268.9517398898703
 30
0.0
 11
272.3109487558117
 21
270.7470591954568
 31
0.0
  0
LINE
  5
16A0B
330
169F5
100
AcDbEntity
  8
0
 62
     0
100
AcDbLine
 10
274.338096998974
 20
270.8412312958541
 30
0.0
 11
272.5486500607066
 21
272.6306782341216
 31
0.0
  0
LINE
  5
16A0C
330
169F5
100
AcDbEntity
  8
0
 62
     0
100
AcDbLine
 10
274.5771041285568
 20
272.723544509831
 30
0.0
 11
272.7934410358203
 21
274.5072076025675
 31
0.0
  0
LINE
  5
16A0D
330
169F5
100
AcDbEntity
  8
0
 62
     0
100
AcDbLine
 10
274.8232195789744
 20
274.5987494029729
 30
0.0
 11
273.0452536351614
 21
276.376715346786
 31
0.0
  0
LINE
  5
16A0E
330
169F5
100
AcDbEntity
  8
0
 62
     0
100
AcDbLine
 10
275.0763749757849
 20
276.466914349722
 30
0.0
 11
273.3040212552761
 21
278.2392680702308
 31
0.0
  0
LINE
  5
16A0F
330
169F5
100
AcDbEntity
  8
0
 62
     0
100
AcDbLine
 10
275.3365033983744
 20
278.3281062706922
 30
0.0
 11
273.5696786943734
 21
280.0949309746933
 31
0.0
  0
LINE
  5
16A10
330
169F5
100
AcDbEntity
  8
0
 62
     0
100
AcDbLine
 10
275.6035393386525
 20
280.1823906739738
 30
0.0
 11
273.8421621129553
 21
281.9437678996711
 31
0.0
  0
LINE
  5
16A11
330
169F5
100
AcDbEntity
  8
0
 62
     0
100
AcDbLine
 10
275.8774186612716
 20
282.0298316949144
 30
0.0
 11
274.1214089958831
 21
283.7858413603029
 31
0.0
  0
LINE
  5
16A12
330
169F5
100
AcDbEntity
  8
0
 62
     0
100
AcDbLine
 10
276.1580785653028
 20
283.8704921344427
 30
0.0
 11
274.6442254840701
 21
285.3843452156756
 31
0.0
  0
LINE
  5
16A13
330
169F5
100
AcDbEntity
  8
0
 62
     0
100
AcDbLine
 10
277.3287716621206
 20
284.8211193811847
 30
0.0
 11
275.7586198166091
 21
286.391271226696
 31
0.0
  0
LINE
  5
16A14
330
169F5
100
AcDbEntity
  8
0
 62
     0
100
AcDbLine
 10
278.9875326782415
 20
285.2836787086232
 30
0.0
 11
277.3639702741428
 21
286.9072411127221
 31
0.0
  0
LINE
  5
16A15
330
169F5
100
AcDbEntity
  8
0
 62
     0
100
AcDbLine
 10
280.6462936943626
 20
285.7462380360619
 30
0.0
 11
279.0227312902638
 21
287.3698004401607
 31
0.0
  0
LINE
  5
16A16
330
169F5
100
AcDbEntity
  8
0
 62
     0
100
AcDbLine
 10
282.3050547104837
 20
286.2087973635005
 30
0.0
 11
280.6814923063849
 21
287.8323597675993
 31
0.0
  0
LINE
  5
16A17
330
169F5
100
AcDbEntity
  8
0
 62
     0
100
AcDbLine
 10
283.9638157266047
 20
286.6713566909391
 30
0.0
 11
282.3402533225059
 21
288.2949190950379
 31
0.0
  0
LINE
  5
16A18
330
169F5
100
AcDbEntity
  8
0
 62
     0
100
AcDbLine
 10
285.6225767427257
 20
287.1339160183778
 30
0.0
 11
283.999014338627
 21
288.7574784224765
 31
0.0
  0
LINE
  5
16A19
330
169F5
100
AcDbEntity
  8
0
 62
     0
100
AcDbLine
 10
287.2813377588467
 20
287.5964753458163
 30
0.0
 11
285.657775354748
 21
289.2200377499151
 31
0.0
  0
LINE
  5
16A1A
330
169F5
100
AcDbEntity
  8
0
 62
     0
100
AcDbLine
 10
288.9400987749678
 20
288.0590346732549
 30
0.0
 11
287.3165363708691
 21
289.6825970773537
 31
0.0
  0
LINE
  5
16A1B
330
169F5
100
AcDbEntity
  8
0
 62
     0
100
AcDbLine
 10
290.5988597910887
 20
288.5215940006935
 30
0.0
 11
288.9752973869901
 21
290.1451564047923
 31
0.0
  0
LINE
  5
16A1C
330
169F5
100
AcDbEntity
  8
0
 62
     0
100
AcDbLine
 10
292.2576208072097
 20
288.9841533281321
 30
0.0
 11
290.6340584031111
 21
290.6077157322309
 31
0.0
  0
LINE
  5
16A1D
330
169F5
100
AcDbEntity
  8
0
 62
     0
100
AcDbLine
 10
293.9163818233309
 20
289.4467126555708
 30
0.0
 11
292.2928194192321
 21
291.0702750596696
 31
0.0
  0
LINE
  5
16A1E
330
169F5
100
AcDbEntity
  8
0
 62
     0
100
AcDbLine
 10
295.5751428394519
 20
289.9092719830094
 30
0.0
 11
293.9515804353531
 21
291.5328343871081
 31
0.0
  0
LINE
  5
16A1F
330
169F5
100
AcDbEntity
  8
0
 62
     0
100
AcDbLine
 10
297.2339038555729
 20
290.371831310448
 30
0.0
 11
295.6103414514742
 21
291.9953937145468
 31
0.0
  0
LINE
  5
16A20
330
169F5
100
AcDbEntity
  8
0
 62
     0
100
AcDbLine
 10
298.892664871694
 20
290.8343906378866
 30
0.0
 11
297.2691024675953
 21
292.4579530419854
 31
0.0
  0
LINE
  5
16A21
330
169F5
100
AcDbEntity
  8
0
 62
     0
100
AcDbLine
 10
300.551425887815
 20
291.2969499653252
 30
0.0
 11
298.9278634837162
 21
292.920512369424
 31
0.0
  0
LINE
  5
16A22
330
169F5
100
AcDbEntity
  8
0
 62
     0
100
AcDbLine
 10
302.210186903936
 20
291.7595092927638
 30
0.0
 11
300.5866244998373
 21
293.3830716968626
 31
0.0
  0
LINE
  5
16A23
330
169F5
100
AcDbEntity
  8
0
 62
     0
100
AcDbLine
 10
303.868947920057
 20
292.2220686202024
 30
0.0
 11
302.2453855159583
 21
293.8456310243012
 31
0.0
  0
LINE
  5
16A24
330
169F5
100
AcDbEntity
  8
0
 62
     0
100
AcDbLine
 10
305.5277089361781
 20
292.6846279476411
 30
0.0
 11
303.9041465320794
 21
294.3081903517398
 31
0.0
  0
LINE
  5
16A25
330
169F5
100
AcDbEntity
  8
0
 62
     0
100
AcDbLine
 10
306.3656983000882
 20
293.9679589272907
 30
0.0
 11
305.5629075482004
 21
294.7707496791784
 31
0.0
  0
LINE
  5
16A26
330
169F5
100
AcDbEntity
  8
0
 62
     0
100
AcDbLine
 10
271.1709523248448
 20
231.5819690987904
 30
0.0
 11
269.2443314757168
 21
233.5085899479185
 31
0.0
  0
LINE
  5
16A27
330
169F5
100
AcDbEntity
  8
0
 62
     0
100
AcDbLine
 10
271.1001287929438
 20
229.5314722871317
 30
0.0
 11
269.1653754179085
 21
231.4662256621672
 31
0.0
  0
LINE
  5
16A28
330
169F5
100
AcDbEntity
  8
0
 62
     0
100
AcDbLine
 10
271.0383944071669
 20
227.471886329349
 30
0.0
 11
269.0953642170661
 21
229.4149165194498
 31
0.0
  0
LINE
  5
16A29
330
169F5
100
AcDbEntity
  8
0
 62
     0
100
AcDbLine
 10
270.9858673077709
 20
225.4030930851854
 30
0.0
 11
269.0344122069195
 21
227.3545481860369
 31
0.0
  0
LINE
  5
16A2A
330
169F5
100
AcDbEntity
  8
0
 62
     0
100
AcDbLine
 10
270.9426688090328
 20
223.3249712403639
 30
0.0
 11
268.9826367507838
 21
225.2850032986129
 31
0.0
  0
LINE
  5
16A2B
330
169F5
100
AcDbEntity
  8
0
 62
     0
100
AcDbLine
 10
270.9089235184747
 20
221.2373961873623
 30
0.0
 11
268.9401583537007
 21
223.2061613521365
 31
0.0
  0
LINE
  5
16A2C
330
169F5
100
AcDbEntity
  8
0
 62
     0
100
AcDbLine
 10
270.8847594619645
 20
219.1402399003129
 30
0.0
 11
268.9071007800249
 21
221.1178985822526
 31
0.0
  0
LINE
  5
16A2D
330
169F5
100
AcDbEntity
  8
0
 62
     0
100
AcDbLine
 10
270.8703082150523
 20
217.0333708036655
 30
0.0
 11
268.8835911767859
 21
219.0200878419319
 31
0.0
  0
LINE
  5
16A2E
330
169F5
100
AcDbEntity
  8
0
 62
     0
100
AcDbLine
 10
270.865705040925
 20
214.9166536342331
 30
0.0
 11
268.8697602031753
 21
216.9125984719828
 31
0.0
  0
LINE
  5
16A2F
330
169F5
100
AcDbEntity
  8
0
 62
     0
100
AcDbLine
 10
270.871089035395
 20
212.7899492962034
 30
0.0
 11
268.8657421665352
 21
214.7952961650634
 31
0.0
  0
LINE
  5
16A30
330
169F5
100
AcDbEntity
  8
0
 62
     0
100
AcDbLine
 10
270.8866032793641
 20
210.6531147086748
 30
0.0
 11
268.8716751652532
 21
212.6680428227857
 31
0.0
  0
LINE
  5
16A31
330
169F5
100
AcDbEntity
  8
0
 62
     0
100
AcDbLine
 10
270.9123949992426
 20
208.5060026452366
 30
0.0
 11
268.8877012389984
 21
210.5306964054808
 31
0.0
  0
LINE
  5
16A32
330
169F5
100
AcDbEntity
  8
0
 62
     0
100
AcDbLine
 10
270.948615735836
 20
206.3484615650835
 30
0.0
 11
268.913966526764
 21
208.3831107741556
 31
0.0
  0
LINE
  5
16A33
330
169F5
100
AcDbEntity
  8
0
 62
     0
100
AcDbLine
 10
270.9954215222545
 20
204.1803354351054
 30
0.0
 11
268.9506214332204
 21
206.2251355241396
 31
0.0
  0
LINE
  5
16A34
330
169F5
100
AcDbEntity
  8
0
 62
     0
100
AcDbLine
 10
271.0529730714407
 20
202.0014635423595
 30
0.0
 11
268.9978208039205
 21
204.0566158098799
 31
0.0
  0
LINE
  5
16A35
330
169F5
100
AcDbEntity
  8
0
 62
     0
100
AcDbLine
 10
271.1214359739624
 20
199.8116802962781
 30
0.0
 11
269.0557241099386
 21
201.877392160302
 31
0.0
  0
LINE
  5
16A36
330
169F5
100
AcDbEntity
  8
0
 62
     0
100
AcDbLine
 10
271.2009809067647
 20
197.6108150199163
 30
0.0
 11
269.1244956425759
 21
199.6873002841051
 31
0.0
  0
LINE
  5
16A37
330
169F5
100
AcDbEntity
  8
0
 62
     0
100
AcDbLine
 10
271.2917838536364
 20
195.3986917294848
 30
0.0
 11
269.2043047188096
 21
197.4861708643117
 31
0.0
  0
LINE
  5
16A38
330
169F5
100
AcDbEntity
  8
0
 62
     0
100
AcDbLine
 10
271.3940263382036
 20
193.1751289013581
 30
0.0
 11
269.295325898222
 21
195.2738293413397
 31
0.0
  0
LINE
  5
16A39
330
169F5
100
AcDbEntity
  8
0
 62
     0
100
AcDbLine
 10
271.5078956703349
 20
190.9399392256671
 30
0.0
 11
269.3977392122058
 21
193.0500956837963
 31
0.0
  0
LINE
  5
16A3A
330
169F5
100
AcDbEntity
  8
0
 62
     0
100
AcDbLine
 10
271.6335852069156
 20
188.6929293455268
 30
0.0
 11
269.5117304063048
 21
190.8147841461376
 31
0.0
  0
LINE
  5
16A3B
330
169F5
100
AcDbEntity
  8
0
 62
     0
100
AcDbLine
 10
271.7712946280288
 20
186.4338995808539
 30
0.0
 11
269.6374911966268
 21
188.567703012256
 31
0.0
  0
LINE
  5
16A3C
330
169F5
100
AcDbEntity
  8
0
 62
     0
100
AcDbLine
 10
271.9212302296757
 20
184.1626436356474
 30
0.0
 11
269.7752195413382
 21
186.3086543239849
 31
0.0
  0
LINE
  5
16A3D
330
169F5
100
AcDbEntity
  8
0
 62
     0
100
AcDbLine
 10
272.0836052342612
 20
181.8789482875023
 30
0.0
 11
269.9251199283463
 21
184.0374335934172
 31
0.0
  0
LINE
  5
16A3E
330
169F5
100
AcDbEntity
  8
0
 62
     0
100
AcDbLine
 10
272.2586401201858
 20
179.582593058018
 30
0.0
 11
270.0874036803612
 21
181.7538294978426
 31
0.0
  0
LINE
  5
16A3F
330
169F5
100
AcDbEntity
  8
0
 62
     0
100
AcDbLine
 10
272.4465629720009
 20
177.2733498626433
 30
0.0
 11
270.2622892786451
 21
179.4576235559991
 31
0.0
  0
LINE
  5
16A40
330
169F5
100
AcDbEntity
  8
0
 62
     0
100
AcDbLine
 10
272.6476098527232
 20
174.9509826383613
 30
0.0
 11
270.4500027068681
 21
177.1485897842164
 31
0.0
  0
LINE
  5
16A41
330
169F5
100
AcDbEntity
  8
0
 62
     0
100
AcDbLine
 10
272.8620252000471
 20
172.6152469474778
 30
0.0
 11
270.6507778166205
 21
174.8264943309045
 31
0.0
  0
LINE
  5
16A42
330
169F5
100
AcDbEntity
  8
0
 62
     0
100
AcDbLine
 10
306.3656983000881
 20
136.9902535038772
 30
0.0
 11
306.2538376591571
 21
137.1021141448081
 31
0.0
  0
LINE
  5
16A43
330
169F5
100
AcDbEntity
  8
0
 62
     0
100
AcDbLine
 10
273.0900622483632
 20
170.265889555602
 30
0.0
 11
270.864856716276
 21
172.4910950876892
 31
0.0
  0
LINE
  5
16A44
330
169F5
100
AcDbEntity
  8
0
 62
     0
100
AcDbLine
 10
306.1914171388934
 20
135.0432143215122
 30
0.0
 11
303.312223780918
 21
137.9224076794875
 31
0.0
  0
LINE
  5
16A45
330
169F5
100
AcDbEntity
  8
0
 62
     0
100
AcDbLine
 10
273.3319834786688
 20
167.9026479817368
 30
0.0
 11
271.0924901850606
 21
170.1421412753451
 31
0.0
  0
LINE
  5
16A46
330
169F5
100
AcDbEntity
  8
0
 62
     0
100
AcDbLine
 10
303.2498032606543
 20
135.8635078561916
 30
0.0
 11
300.370609902679
 21
138.7427012141669
 31
0.0
  0
LINE
  5
16A47
330
169F5
100
AcDbEntity
  8
0
 62
     0
100
AcDbLine
 10
273.5880610986626
 20
165.5252500181833
 30
0.0
 11
271.3339381143519
 21
167.779373002494
 31
0.0
  0
LINE
  5
16A48
330
169F5
100
AcDbEntity
  8
0
 62
     0
100
AcDbLine
 10
300.3081893824152
 20
136.683801390871
 30
0.0
 11
297.42899602444
 21
139.5629947488463
 31
0.0
  0
LINE
  5
16A49
330
169F5
100
AcDbEntity
  8
0
 62
     0
100
AcDbLine
 10
273.8585775555415
 20
163.1334132177448
 30
0.0
 11
271.589469978441
 21
165.4025207948453
 31
0.0
  0
LINE
  5
16A4A
330
169F5
100
AcDbEntity
  8
0
 62
     0
100
AcDbLine
 10
297.3665755041763
 20
137.5040949255504
 30
0.0
 11
294.4873821462009
 21
140.3832882835257
 31
0.0
  0
LINE
  5
16A4B
330
169F5
100
AcDbEntity
  8
0
 62
     0
100
AcDbLine
 10
274.1438260842653
 20
160.7268443454613
 30
0.0
 11
271.8593653371948
 21
163.011305092532
 31
0.0
  0
LINE
  5
16A4C
330
169F5
100
AcDbEntity
  8
0
 62
     0
100
AcDbLine
 10
294.4249616259372
 20
138.3243884602298
 30
0.0
 11
291.5457682679618
 21
141.2035818182052
 31
0.0
  0
LINE
  5
16A4D
330
169F5
100
AcDbEntity
  8
0
 62
     0
100
AcDbLine
 10
274.4441112943449
 20
158.3052387918221
 30
0.0
 11
272.1439143733114
 21
160.6054357128557
 31
0.0
  0
LINE
  5
16A4E
330
169F5
100
AcDbEntity
  8
0
 62
     0
100
AcDbLine
 10
291.4833477476981
 20
139.1446819949093
 30
0.0
 11
288.6041543897229
 21
142.0238753528845
 31
0.0
  0
LINE
  5
16A4F
330
169F5
100
AcDbEntity
  8
0
 62
     0
100
AcDbLine
 10
274.7597497985167
 20
155.8682799440907
 30
0.0
 11
272.4434184671257
 21
158.1846112754817
 31
0.0
  0
LINE
  5
16A50
330
169F5
100
AcDbEntity
  8
0
 62
     0
100
AcDbLine
 10
288.541733869459
 20
139.9649755295887
 30
0.0
 11
285.6625405114838
 21
142.844168887564
 31
0.0
  0
LINE
  5
16A51
330
169F5
100
AcDbEntity
  8
0
 62
     0
100
AcDbLine
 10
275.0910708870241
 20
153.4156385120236
 30
0.0
 11
272.7581908122296
 21
155.7485185868182
 31
0.0
  0
LINE
  5
16A52
330
169F5
100
AcDbEntity
  8
0
 62
     0
100
AcDbLine
 10
285.60011999122
 20
140.7852690642681
 30
0.0
 11
282.7209266332447
 21
143.6644624222434
 31
0.0
  0
LINE
  5
16A53
330
169F5
100
AcDbEntity
  8
0
 62
     0
100
AcDbLine
 10
275.4384172516252
 20
150.9469718038629
 30
0.0
 11
273.0885570755139
 21
153.2968319799743
 31
0.0
  0
LINE
  5
16A54
330
169F5
100
AcDbEntity
  8
0
 62
     0
100
AcDbLine
 10
282.658506112981
 20
141.6055625989475
 30
0.0
 11
279.7793127550056
 21
144.4847559569228
 31
0.0
  0
LINE
  5
16A55
330
169F5
100
AcDbEntity
  8
0
 62
     0
100
AcDbLine
 10
275.8021457638883
 20
148.4619229480401
 30
0.0
 11
273.4348561056182
 21
150.8292126063103
 31
0.0
  0
LINE
  5
16A56
330
169F5
100
AcDbEntity
  8
0
 62
     0
100
AcDbLine
 10
279.7168922347419
 20
142.4258561336269
 30
0.0
 11
276.8361860219808
 21
145.306562346388
 31
0.0
  0
LINE
  5
16A57
330
169F5
100
AcDbEntity
  8
0
 62
     0
100
AcDbLine
 10
276.198736905103
 20
145.9440114632658
 30
0.0
 11
273.7974406942085
 21
148.3453076741604
 31
0.0
  0
LINE
  5
16A58
330
169F5
100
AcDbEntity
  8
0
 62
     0
100
AcDbLine
 10
276.7752783565029
 20
143.2461496683063
 30
0.0
 11
274.1766783949866
 21
145.8447496298227
 31
0.0
  0
ENDBLK
  5
16A59
330
169F5
100
AcDbEntity
  8
0
100
AcDbBlockEnd
  0
BLOCK
  5
16A5B
330
16A5A
100
AcDbEntity
  8
0
100
AcDbBlockBegin
  2
*D15
 70
     1
 10
0.0
 20
0.0
 30
0.0
  3
*D15
  1

  0
LINE
  5
16CEE
330
16A5A
100
AcDbEntity
  8
1
 62
     0
370
    -2
100
AcDbLine
 10
290.5985740630685
 20
213.4946145678862
 30
0.0
 11
290.5985740630685
 21
112.2389154622333
 31
0.0
  0
LINE
  5
16CEF
330
16A5A
100
AcDbEntity
  8
1
 62
     0
370
    -2
100
AcDbLine
 10
328.0985740630736
 20
133.4946145678865
 30
0.0
 11
328.0985740630736
 21
112.2389154622333
 31
0.0
  0
LINE
  5
16CF0
330
16A5A
100
AcDbEntity
  8
1
 62
     0
370
    -2
100
AcDbLine
 10
293.5985740630684
 20
113.7389154622333
 30
0.0
 11
325.0985740630736
 21
113.7389154622333
 31
0.0
  0
SOLID
  5
16CF1
330
16A5A
100
AcDbEntity
  8
1
 62
     0
100
AcDbTrace
 10
293.5985740630684
 20
114.2389154622333
 30
0.0
 11
293.5985740630684
 21
113.2389154622333
 31
0.0
 12
290.5985740630685
 22
113.7389154622333
 32
0.0
 13
290.5985740630685
 23
113.7389154622333
 33
0.0
  0
SOLID
  5
16CF2
330
16A5A
100
AcDbEntity
  8
1
 62
     0
100
AcDbTrace
 10
325.0985740630736
 20
114.2389154622333
 30
0.0
 11
325.0985740630736
 21
113.2389154622333
 31
0.0
 12
328.0985740630736
 22
113.7389154622333
 32
0.0
 13
328.0985740630736
 23
113.7389154622333
 33
0.0
  0
MTEXT
  5
16CF3
330
16A5A
100
AcDbEntity
  8
1
 62
     0
100
AcDbMText
 10
309.3485740630711
 20
117.4889154622333
 30
0.0
 40
4.5
 41
0.0
 71
     5
 72
     1
  1
\A1;37.5
  7
EXTFONT
 73
     1
 44
1.0
  0
POINT
  5
16CF4
330
16A5A
100
AcDbEntity
  8
DEFPOINTS
 62
     0
100
AcDbPoint
 10
290.5985740630685
 20
214.9946145678863
 30
0.0
  0
POINT
  5
16CF5
330
16A5A
100
AcDbEntity
  8
DEFPOINTS
 62
     0
100
AcDbPoint
 10
328.0985740630736
 20
134.9946145678865
 30
0.0
  0
POINT
  5
16CF6
330
16A5A
100
AcDbEntity
  8
DEFPOINTS
 62
     0
100
AcDbPoint
 10
328.0985740630736
 20
113.7389154622333
 30
0.0
  0
ENDBLK
  5
16A65
330
16A5A
100
AcDbEntity
  8
0
100
AcDbBlockEnd
  0
BLOCK
  5
16A9D
330
16A9C
100
AcDbEntity
  8
0
100
AcDbBlockBegin
  2
*X16
 70
     1
 10
0.0
 20
0.0
 30
0.0
  3
*X16
  1

  0
LINE
  5
16A9F
330
16A9C
100
AcDbEntity
  8
0
 62
     0
100
AcDbLine
 10
337.1849999999999
 20
141.880908
 30
0.0
 11
339.0899999999999
 21
141.880908
 31
0.0
  0
LINE
  5
16AA0
330
16A9C
100
AcDbEntity
  8
0
 62
     0
100
AcDbLine
 10
337.1849999999999
 20
145.1804639999999
 30
0.0
 11
339.0899999999999
 21
145.1804639999999
 31
0.0
  0
LINE
  5
16AA1
330
16A9C
100
AcDbEntity
  8
0
 62
     0
100
AcDbLine
 10
337.1849999999999
 20
148.48002
 30
0.0
 11
339.0899999999999
 21
148.48002
 31
0.0
  0
LINE
  5
16AA2
330
16A9C
100
AcDbEntity
  8
0
 62
     0
100
AcDbLine
 10
337.1849999999999
 20
151.779576
 30
0.0
 11
339.0899999999999
 21
151.779576
 31
0.0
  0
LINE
  5
16AA3
330
16A9C
100
AcDbEntity
  8
0
 62
     0
100
AcDbLine
 10
333.365698300088
 20
138.581352
 30
0.0
 11
333.3749999999999
 21
138.581352
 31
0.0
  0
LINE
  5
16AA4
330
16A9C
100
AcDbEntity
  8
0
 62
     0
100
AcDbLine
 10
337.1849999999999
 20
138.581352
 30
0.0
 11
339.0899999999999
 21
138.581352
 31
0.0
  0
LINE
  5
16AA5
330
16A9C
100
AcDbEntity
  8
0
 62
     0
100
AcDbLine
 10
337.1849999999999
 20
135.281796
 30
0.0
 11
339.0899999999999
 21
135.281796
 31
0.0
  0
LINE
  5
16AA6
330
16A9C
100
AcDbEntity
  8
0
 62
     0
100
AcDbLine
 10
340.0424248930304
 20
136.9315633563473
 30
0.0
 11
339.0899248930304
 21
138.5813417505566
 31
0.0
  0
LINE
  5
16AA7
330
16A9C
100
AcDbEntity
  8
0
 62
     0
100
AcDbLine
 10
337.1849248930304
 20
141.8808985389754
 30
0.0
 11
336.2324248930304
 21
143.5306769331847
 31
0.0
  0
LINE
  5
16AA8
330
16A9C
100
AcDbEntity
  8
0
 62
     0
100
AcDbLine
 10
337.1849255758212
 20
135.2817853563474
 30
0.0
 11
336.2324255758212
 21
136.9315637505568
 31
0.0
  0
LINE
  5
16AA9
330
16A9C
100
AcDbEntity
  8
0
 62
     0
100
AcDbLine
 10
340.0424242102397
 20
143.5306765389753
 30
0.0
 11
339.0899242102397
 21
145.1804549331846
 31
0.0
  0
LINE
  5
16AAA
330
16A9C
100
AcDbEntity
  8
0
 62
     0
100
AcDbLine
 10
337.1849242102397
 20
148.4800117216034
 30
0.0
 11
336.2324242102397
 21
150.1297901158127
 31
0.0
  0
LINE
  5
16AAB
330
16A9C
100
AcDbEntity
  8
0
 62
     0
100
AcDbLine
 10
340.0424235274492
 20
150.1297897216034
 30
0.0
 11
339.0899235274492
 21
151.7795681158128
 31
0.0
  0
LINE
  5
16AAC
330
16A9C
100
AcDbEntity
  8
0
 62
     0
100
AcDbLine
 10
336.2324556186088
 20
150.1298594966593
 30
0.0
 11
337.1849556186088
 21
151.7796378908687
 31
0.0
  0
LINE
  5
16AAD
330
16A9C
100
AcDbEntity
  8
0
 62
     0
100
AcDbLine
 10
333.3749549358182
 20
138.5814111314031
 30
0.0
 11
334.1966349113582
 21
140.0046025966003
 31
0.0
  0
LINE
  5
16AAE
330
16A9C
100
AcDbEntity
  8
0
 62
     0
100
AcDbLine
 10
336.2324549358182
 20
143.5307463140313
 30
0.0
 11
337.1849549358182
 21
145.1805247082407
 31
0.0
  0
LINE
  5
16AAF
330
16A9C
100
AcDbEntity
  8
0
 62
     0
100
AcDbLine
 10
339.0899549358181
 20
148.4800814966594
 30
0.0
 11
340.0424549358181
 21
150.1298598908687
 31
0.0
  0
LINE
  5
16AB0
330
16A9C
100
AcDbEntity
  8
0
 62
     0
100
AcDbLine
 10
336.2324542530276
 20
136.9316331314031
 30
0.0
 11
337.1849542530276
 21
138.5814115256125
 31
0.0
  0
LINE
  5
16AB1
330
16A9C
100
AcDbEntity
  8
0
 62
     0
100
AcDbLine
 10
339.0899542530275
 20
141.8809683140312
 30
0.0
 11
340.0424542530275
 21
143.5307467082406
 31
0.0
  0
LINE
  5
16AB2
330
16A9C
100
AcDbEntity
  8
0
 62
     0
100
AcDbLine
 10
339.089953570237
 20
135.2818551314032
 30
0.0
 11
340.042453570237
 21
136.9316335256125
 31
0.0
  0
ENDBLK
  5
16AB3
330
16A9C
100
AcDbEntity
  8
0
100
AcDbBlockEnd
  0
BLOCK
  5
16B2E
330
16B2D
100
AcDbEntity
  8
0
100
AcDbBlockBegin
  2
*X17
 70
     1
 10
0.0
 20
0.0
 30
0.0
  3
*X17
  1

  0
LINE
  5
16B30
330
16B2D
100
AcDbEntity
  8
0
 62
     0
100
AcDbLine
 10
366.4393114023088
 20
262.4946145678864
 30
0.0
 11
368.4393114023089
 21
264.4946145678864
 31
0.0
  0
LINE
  5
16B31
330
16B2D
100
AcDbEntity
  8
0
 62
     0
100
AcDbLine
 10
364.3179910587492
 20
262.4946145678864
 30
0.0
 11
366.3179910587493
 21
264.4946145678864
 31
0.0
  0
LINE
  5
16B32
330
16B2D
100
AcDbEntity
  8
0
 62
     0
100
AcDbLine
 10
362.1966707151896
 20
262.4946145678864
 30
0.0
 11
364.1966707151896
 21
264.4946145678864
 31
0.0
  0
LINE
  5
16B33
330
16B2D
100
AcDbEntity
  8
0
 62
     0
100
AcDbLine
 10
360.0753503716299
 20
262.4946145678864
 30
0.0
 11
362.0753503716299
 21
264.4946145678864
 31
0.0
  0
LINE
  5
16B34
330
16B2D
100
AcDbEntity
  8
0
 62
     0
100
AcDbLine
 10
357.9540300280702
 20
262.4946145678864
 30
0.0
 11
359.9540300280704
 21
264.4946145678864
 31
0.0
  0
LINE
  5
16B35
330
16B2D
100
AcDbEntity
  8
0
 62
     0
100
AcDbLine
 10
355.8327096845107
 20
262.4946145678864
 30
0.0
 11
357.8327096845107
 21
264.4946145678864
 31
0.0
  0
LINE
  5
16B36
330
16B2D
100
AcDbEntity
  8
0
 62
     0
100
AcDbLine
 10
353.711389340951
 20
262.4946145678864
 30
0.0
 11
355.7113893409511
 21
264.4946145678864
 31
0.0
  0
LINE
  5
16B37
330
16B2D
100
AcDbEntity
  8
0
 62
     0
100
AcDbLine
 10
351.5900689973914
 20
262.4946145678864
 30
0.0
 11
353.5900689973914
 21
264.4946145678864
 31
0.0
  0
LINE
  5
16B38
330
16B2D
100
AcDbEntity
  8
0
 62
     0
100
AcDbLine
 10
349.4687486538318
 20
262.4946145678864
 30
0.0
 11
351.4687486538317
 21
264.4946145678864
 31
0.0
  0
LINE
  5
16B39
330
16B2D
100
AcDbEntity
  8
0
 62
     0
100
AcDbLine
 10
347.3474283102721
 20
262.4946145678864
 30
0.0
 11
349.3474283102722
 21
264.4946145678864
 31
0.0
  0
LINE
  5
16B3A
330
16B2D
100
AcDbEntity
  8
0
 62
     0
100
AcDbLine
 10
345.2261079667124
 20
262.4946145678864
 30
0.0
 11
347.2261079667125
 21
264.4946145678864
 31
0.0
  0
LINE
  5
16B3B
330
16B2D
100
AcDbEntity
  8
0
 62
     0
100
AcDbLine
 10
343.1047876231528
 20
262.4946145678864
 30
0.0
 11
345.1047876231529
 21
264.4946145678864
 31
0.0
  0
LINE
  5
16B3C
330
16B2D
100
AcDbEntity
  8
0
 62
     0
100
AcDbLine
 10
340.9834672795932
 20
262.4946145678864
 30
0.0
 11
342.9834672795932
 21
264.4946145678864
 31
0.0
  0
LINE
  5
16B3D
330
16B2D
100
AcDbEntity
  8
0
 62
     0
100
AcDbLine
 10
338.8621469360335
 20
262.4946145678864
 30
0.0
 11
340.8621469360335
 21
264.4946145678864
 31
0.0
  0
LINE
  5
16B3E
330
16B2D
100
AcDbEntity
  8
0
 62
     0
100
AcDbLine
 10
336.7408265924739
 20
262.4946145678864
 30
0.0
 11
338.7408265924739
 21
264.4946145678864
 31
0.0
  0
LINE
  5
16B3F
330
16B2D
100
AcDbEntity
  8
0
 62
     0
100
AcDbLine
 10
334.6195062489143
 20
262.4946145678864
 30
0.0
 11
336.6195062489143
 21
264.4946145678864
 31
0.0
  0
LINE
  5
16B40
330
16B2D
100
AcDbEntity
  8
0
 62
     0
100
AcDbLine
 10
332.4981859053546
 20
262.4946145678864
 30
0.0
 11
333.4981859053546
 21
263.4946145678864
 31
0.0
  0
LINE
  5
16B41
330
16B2D
100
AcDbEntity
  8
0
 62
     0
100
AcDbLine
 10
330.3768655617949
 20
262.4946145678864
 30
0.0
 11
331.3768655617949
 21
263.4946145678864
 31
0.0
  0
LINE
  5
16B42
330
16B2D
100
AcDbEntity
  8
0
 62
     0
100
AcDbLine
 10
328.2555452182354
 20
262.4946145678864
 30
0.0
 11
329.2555452182353
 21
263.4946145678864
 31
0.0
  0
LINE
  5
16B43
330
16B2D
100
AcDbEntity
  8
0
 62
     0
100
AcDbLine
 10
326.1342248746757
 20
262.4946145678864
 30
0.0
 11
327.1342248746757
 21
263.4946145678864
 31
0.0
  0
LINE
  5
16B44
330
16B2D
100
AcDbEntity
  8
0
 62
     0
100
AcDbLine
 10
368.5606317458685
 20
262.4946145678864
 30
0.0
 11
370.5606317458686
 21
264.4946145678864
 31
0.0
  0
LINE
  5
16B45
330
16B2D
100
AcDbEntity
  8
0
 62
     0
100
AcDbLine
 10
370.6819520894281
 20
262.4946145678864
 30
0.0
 11
372.6819520894281
 21
264.4946145678864
 31
0.0
  0
LINE
  5
16B46
330
16B2D
100
AcDbEntity
  8
0
 62
     0
100
AcDbLine
 10
372.8032724329878
 20
262.4946145678864
 30
0.0
 11
374.8032724329878
 21
264.4946145678864
 31
0.0
  0
LINE
  5
16B47
330
16B2D
100
AcDbEntity
  8
0
 62
     0
100
AcDbLine
 10
374.9245927765474
 20
262.4946145678864
 30
0.0
 11
376.9245927765475
 21
264.4946145678864
 31
0.0
  0
LINE
  5
16B48
330
16B2D
100
AcDbEntity
  8
0
 62
     0
100
AcDbLine
 10
377.0459131201071
 20
262.4946145678864
 30
0.0
 11
379.0459131201071
 21
264.4946145678864
 31
0.0
  0
LINE
  5
16B49
330
16B2D
100
AcDbEntity
  8
0
 62
     0
100
AcDbLine
 10
379.1672334636666
 20
262.4946145678864
 30
0.0
 11
381.1672334636668
 21
264.4946145678864
 31
0.0
  0
LINE
  5
16B4A
330
16B2D
100
AcDbEntity
  8
0
 62
     0
100
AcDbLine
 10
381.2885538072263
 20
262.4946145678864
 30
0.0
 11
383.2885538072265
 21
264.4946145678864
 31
0.0
  0
LINE
  5
16B4B
330
16B2D
100
AcDbEntity
  8
0
 62
     0
100
AcDbLine
 10
383.409874150786
 20
262.4946145678864
 30
0.0
 11
385.409874150786
 21
264.4946145678864
 31
0.0
  0
LINE
  5
16B4C
330
16B2D
100
AcDbEntity
  8
0
 62
     0
100
AcDbLine
 10
385.5311944943456
 20
262.4946145678864
 30
0.0
 11
387.5311944943457
 21
264.4946145678864
 31
0.0
  0
LINE
  5
16B4D
330
16B2D
100
AcDbEntity
  8
0
 62
     0
100
AcDbLine
 10
387.6525148379053
 20
262.4946145678864
 30
0.0
 11
389.6525148379053
 21
264.4946145678865
 31
0.0
  0
LINE
  5
16B4E
330
16B2D
100
AcDbEntity
  8
0
 62
     0
100
AcDbLine
 10
389.7738351814649
 20
262.4946145678864
 30
0.0
 11
391.773835181465
 21
264.4946145678865
 31
0.0
  0
LINE
  5
16B4F
330
16B2D
100
AcDbEntity
  8
0
 62
     0
100
AcDbLine
 10
391.8951555250245
 20
262.4946145678864
 30
0.0
 11
393.8951555250247
 21
264.4946145678865
 31
0.0
  0
LINE
  5
16B50
330
16B2D
100
AcDbEntity
  8
0
 62
     0
100
AcDbLine
 10
394.0164758685842
 20
262.4946145678864
 30
0.0
 11
396.0164758685843
 21
264.4946145678865
 31
0.0
  0
LINE
  5
16B51
330
16B2D
100
AcDbEntity
  8
0
 62
     0
100
AcDbLine
 10
396.1377962121438
 20
262.4946145678864
 30
0.0
 11
398.137796212144
 21
264.4946145678865
 31
0.0
  0
LINE
  5
16B52
330
16B2D
100
AcDbEntity
  8
0
 62
     0
100
AcDbLine
 10
398.2591165557035
 20
262.4946145678864
 30
0.0
 11
400.2591165557036
 21
264.4946145678865
 31
0.0
  0
LINE
  5
16B53
330
16B2D
100
AcDbEntity
  8
0
 62
     0
100
AcDbLine
 10
400.380436899263
 20
262.4946145678864
 30
0.0
 11
402.3804368992632
 21
264.4946145678865
 31
0.0
  0
LINE
  5
16B54
330
16B2D
100
AcDbEntity
  8
0
 62
     0
100
AcDbLine
 10
402.5017572428227
 20
262.4946145678864
 30
0.0
 11
404.5017572428228
 21
264.4946145678865
 31
0.0
  0
LINE
  5
16B55
330
16B2D
100
AcDbEntity
  8
0
 62
     0
100
AcDbLine
 10
404.6230775863824
 20
262.4946145678864
 30
0.0
 11
406.6230775863825
 21
264.4946145678865
 31
0.0
  0
LINE
  5
16B56
330
16B2D
100
AcDbEntity
  8
0
 62
     0
100
AcDbLine
 10
406.744397929942
 20
262.4946145678864
 30
0.0
 11
408.7443979299422
 21
264.4946145678865
 31
0.0
  0
LINE
  5
16B57
330
16B2D
100
AcDbEntity
  8
0
 62
     0
100
AcDbLine
 10
408.8657182735016
 20
262.4946145678864
 30
0.0
 11
410.3656983000879
 21
263.9945945944727
 31
0.0
  0
ENDBLK
  5
16B58
330
16B2D
100
AcDbEntity
  8
0
100
AcDbBlockEnd
  0
BLOCK
  5
16B68
330
16B67
100
AcDbEntity
  8
0
100
AcDbBlockBegin
  2
*X18
 70
     1
 10
0.0
 20
0.0
 30
0.0
  3
*X18
  1

  0
LINE
  5
16B6A
330
16B67
100
AcDbEntity
  8
0
 62
     0
100
AcDbLine
 10
364.8987268624925
 20
165.4946145678862
 30
0.0
 11
366.8987268624925
 21
167.4946145678862
 31
0.0
  0
LINE
  5
16B6B
330
16B67
100
AcDbEntity
  8
0
 62
     0
100
AcDbLine
 10
362.7774065189329
 20
165.4946145678862
 30
0.0
 11
364.7774065189329
 21
167.4946145678862
 31
0.0
  0
LINE
  5
16B6C
330
16B67
100
AcDbEntity
  8
0
 62
     0
100
AcDbLine
 10
360.6560861753733
 20
165.4946145678862
 30
0.0
 11
362.6560861753732
 21
167.4946145678862
 31
0.0
  0
LINE
  5
16B6D
330
16B67
100
AcDbEntity
  8
0
 62
     0
100
AcDbLine
 10
358.5347658318136
 20
165.4946145678862
 30
0.0
 11
360.5347658318136
 21
167.4946145678862
 31
0.0
  0
LINE
  5
16B6E
330
16B67
100
AcDbEntity
  8
0
 62
     0
100
AcDbLine
 10
356.413445488254
 20
165.4946145678862
 30
0.0
 11
358.413445488254
 21
167.4946145678862
 31
0.0
  0
LINE
  5
16B6F
330
16B67
100
AcDbEntity
  8
0
 62
     0
100
AcDbLine
 10
354.2921251446943
 20
165.4946145678862
 30
0.0
 11
356.2921251446943
 21
167.4946145678862
 31
0.0
  0
LINE
  5
16B70
330
16B67
100
AcDbEntity
  8
0
 62
     0
100
AcDbLine
 10
352.1708048011348
 20
165.4946145678862
 30
0.0
 11
354.1708048011348
 21
167.4946145678862
 31
0.0
  0
LINE
  5
16B71
330
16B67
100
AcDbEntity
  8
0
 62
     0
100
AcDbLine
 10
350.0494844575751
 20
165.4946145678862
 30
0.0
 11
352.0494844575751
 21
167.4946145678862
 31
0.0
  0
LINE
  5
16B72
330
16B67
100
AcDbEntity
  8
0
 62
     0
100
AcDbLine
 10
347.9281641140155
 20
165.4946145678862
 30
0.0
 11
349.9281641140154
 21
167.4946145678862
 31
0.0
  0
LINE
  5
16B73
330
16B67
100
AcDbEntity
  8
0
 62
     0
100
AcDbLine
 10
345.8068437704558
 20
165.4946145678862
 30
0.0
 11
347.8068437704558
 21
167.4946145678862
 31
0.0
  0
LINE
  5
16B74
330
16B67
100
AcDbEntity
  8
0
 62
     0
100
AcDbLine
 10
343.6855234268962
 20
165.4946145678862
 30
0.0
 11
345.6855234268962
 21
167.4946145678862
 31
0.0
  0
LINE
  5
16B75
330
16B67
100
AcDbEntity
  8
0
 62
     0
100
AcDbLine
 10
341.5642030833365
 20
165.4946145678862
 30
0.0
 11
343.5642030833365
 21
167.4946145678862
 31
0.0
  0
LINE
  5
16B76
330
16B67
100
AcDbEntity
  8
0
 62
     0
100
AcDbLine
 10
339.4428827397768
 20
165.4946145678862
 30
0.0
 11
341.4428827397768
 21
167.4946145678862
 31
0.0
  0
LINE
  5
16B77
330
16B67
100
AcDbEntity
  8
0
 62
     0
100
AcDbLine
 10
337.3215623962173
 20
165.4946145678862
 30
0.0
 11
339.3215623962173
 21
167.4946145678862
 31
0.0
  0
LINE
  5
16B78
330
16B67
100
AcDbEntity
  8
0
 62
     0
100
AcDbLine
 10
335.3656983000881
 20
165.6600708153167
 30
0.0
 11
337.2002420526576
 21
167.4946145678862
 31
0.0
  0
LINE
  5
16B79
330
16B67
100
AcDbEntity
  8
0
 62
     0
100
AcDbLine
 10
334.078921709098
 20
166.4946145678862
 30
0.0
 11
335.078921709098
 21
167.4946145678862
 31
0.0
  0
LINE
  5
16B7A
330
16B67
100
AcDbEntity
  8
0
 62
     0
100
AcDbLine
 10
331.9576013655383
 20
166.4946145678862
 30
0.0
 11
332.9576013655383
 21
167.4946145678862
 31
0.0
  0
LINE
  5
16B7B
330
16B67
100
AcDbEntity
  8
0
 62
     0
100
AcDbLine
 10
329.8362810219786
 20
166.4946145678862
 30
0.0
 11
330.8362810219787
 21
167.4946145678862
 31
0.0
  0
LINE
  5
16B7C
330
16B67
100
AcDbEntity
  8
0
 62
     0
100
AcDbLine
 10
327.714960678419
 20
166.4946145678862
 30
0.0
 11
328.7149606784191
 21
167.4946145678862
 31
0.0
  0
LINE
  5
16B7D
330
16B67
100
AcDbEntity
  8
0
 62
     0
100
AcDbLine
 10
325.5936403348593
 20
166.4946145678862
 30
0.0
 11
326.5936403348594
 21
167.4946145678862
 31
0.0
  0
LINE
  5
16B7E
330
16B67
100
AcDbEntity
  8
0
 62
     0
100
AcDbLine
 10
367.0200472060522
 20
165.4946145678862
 30
0.0
 11
369.0200472060522
 21
167.4946145678862
 31
0.0
  0
LINE
  5
16B7F
330
16B67
100
AcDbEntity
  8
0
 62
     0
100
AcDbLine
 10
369.1413675496118
 20
165.4946145678862
 30
0.0
 11
371.1413675496118
 21
167.4946145678862
 31
0.0
  0
LINE
  5
16B80
330
16B67
100
AcDbEntity
  8
0
 62
     0
100
AcDbLine
 10
371.2626878931715
 20
165.4946145678862
 30
0.0
 11
373.2626878931715
 21
167.4946145678861
 31
0.0
  0
LINE
  5
16B81
330
16B67
100
AcDbEntity
  8
0
 62
     0
100
AcDbLine
 10
373.3840082367311
 20
165.4946145678862
 30
0.0
 11
375.3840082367311
 21
167.4946145678861
 31
0.0
  0
LINE
  5
16B82
330
16B67
100
AcDbEntity
  8
0
 62
     0
100
AcDbLine
 10
375.5053285802908
 20
165.4946145678862
 30
0.0
 11
377.5053285802907
 21
167.4946145678861
 31
0.0
  0
LINE
  5
16B83
330
16B67
100
AcDbEntity
  8
0
 62
     0
100
AcDbLine
 10
377.6266489238504
 20
165.4946145678862
 30
0.0
 11
379.6266489238504
 21
167.4946145678861
 31
0.0
  0
LINE
  5
16B84
330
16B67
100
AcDbEntity
  8
0
 62
     0
100
AcDbLine
 10
379.7479692674101
 20
165.4946145678862
 30
0.0
 11
381.74796926741
 21
167.4946145678861
 31
0.0
  0
LINE
  5
16B85
330
16B67
100
AcDbEntity
  8
0
 62
     0
100
AcDbLine
 10
381.8692896109697
 20
165.4946145678862
 30
0.0
 11
383.8692896109697
 21
167.4946145678861
 31
0.0
  0
LINE
  5
16B86
330
16B67
100
AcDbEntity
  8
0
 62
     0
100
AcDbLine
 10
383.9906099545294
 20
165.4946145678862
 30
0.0
 11
385.9906099545293
 21
167.4946145678861
 31
0.0
  0
LINE
  5
16B87
330
16B67
100
AcDbEntity
  8
0
 62
     0
100
AcDbLine
 10
386.111930298089
 20
165.4946145678862
 30
0.0
 11
388.111930298089
 21
167.4946145678861
 31
0.0
  0
LINE
  5
16B88
330
16B67
100
AcDbEntity
  8
0
 62
     0
100
AcDbLine
 10
388.2332506416487
 20
165.4946145678862
 30
0.0
 11
390.2332506416486
 21
167.4946145678861
 31
0.0
  0
LINE
  5
16B89
330
16B67
100
AcDbEntity
  8
0
 62
     0
100
AcDbLine
 10
390.3545709852083
 20
165.4946145678862
 30
0.0
 11
392.3545709852082
 21
167.4946145678861
 31
0.0
  0
LINE
  5
16B8A
330
16B67
100
AcDbEntity
  8
0
 62
     0
100
AcDbLine
 10
392.4758913287679
 20
165.4946145678862
 30
0.0
 11
394.4758913287679
 21
167.4946145678861
 31
0.0
  0
LINE
  5
16B8B
330
16B67
100
AcDbEntity
  8
0
 62
     0
100
AcDbLine
 10
394.5972116723276
 20
165.4946145678862
 30
0.0
 11
396.5972116723276
 21
167.4946145678861
 31
0.0
  0
LINE
  5
16B8C
330
16B67
100
AcDbEntity
  8
0
 62
     0
100
AcDbLine
 10
396.7185320158873
 20
165.4946145678862
 30
0.0
 11
398.7185320158872
 21
167.4946145678861
 31
0.0
  0
LINE
  5
16B8D
330
16B67
100
AcDbEntity
  8
0
 62
     0
100
AcDbLine
 10
398.8398523594469
 20
165.4946145678862
 30
0.0
 11
400.8398523594467
 21
167.4946145678861
 31
0.0
  0
LINE
  5
16B8E
330
16B67
100
AcDbEntity
  8
0
 62
     0
100
AcDbLine
 10
400.9611727030065
 20
165.4946145678862
 30
0.0
 11
402.9611727030064
 21
167.4946145678861
 31
0.0
  0
LINE
  5
16B8F
330
16B67
100
AcDbEntity
  8
0
 62
     0
100
AcDbLine
 10
403.0824930465661
 20
165.4946145678862
 30
0.0
 11
405.082493046566
 21
167.4946145678861
 31
0.0
  0
LINE
  5
16B90
330
16B67
100
AcDbEntity
  8
0
 62
     0
100
AcDbLine
 10
405.2038133901258
 20
165.4946145678862
 30
0.0
 11
407.2038133901257
 21
167.4946145678861
 31
0.0
  0
LINE
  5
16B91
330
16B67
100
AcDbEntity
  8
0
 62
     0
100
AcDbLine
 10
407.3251337336855
 20
165.4946145678862
 30
0.0
 11
409.3251337336853
 21
167.4946145678861
 31
0.0
  0
LINE
  5
16B92
330
16B67
100
AcDbEntity
  8
0
 62
     0
100
AcDbLine
 10
409.4464540772451
 20
165.4946145678862
 30
0.0
 11
410.3656983000878
 21
166.413858790729
 31
0.0
  0
ENDBLK
  5
16B93
330
16B67
100
AcDbEntity
  8
0
100
AcDbBlockEnd
  0
BLOCK
  5
16BF3
330
16BF2
100
AcDbEntity
  8
0
100
AcDbBlockBegin
  2
*D19
 70
     1
 10
0.0
 20
0.0
 30
0.0
  3
*D19
  1

  0
LINE
  5
16CE5
330
16BF2
100
AcDbEntity
  8
1
 62
     0
370
    -2
100
AcDbLine
 10
360.0985740630735
 20
132.4946145678861
 30
0.0
 11
453.9389535067202
 21
132.4946145678861
 31
0.0
  0
LINE
  5
16CE6
330
16BF2
100
AcDbEntity
  8
1
 62
     0
370
    -2
100
AcDbLine
 10
433.5985740630734
 20
165.4946145678861
 30
0.0
 11
453.9389535067202
 21
165.4946145678861
 31
0.0
  0
LINE
  5
16CE7
330
16BF2
100
AcDbEntity
  8
1
 62
     0
370
    -2
100
AcDbLine
 10
452.4389535067203
 20
135.4946145678861
 30
0.0
 11
452.4389535067203
 21
162.4946145678861
 31
0.0
  0
SOLID
  5
16CE8
330
16BF2
100
AcDbEntity
  8
1
 62
     0
100
AcDbTrace
 10
451.9389535067203
 20
135.4946145678861
 30
0.0
 11
452.9389535067203
 21
135.4946145678861
 31
0.0
 12
452.4389535067203
 22
132.4946145678861
 32
0.0
 13
452.4389535067203
 23
132.4946145678861
 33
0.0
  0
SOLID
  5
16CE9
330
16BF2
100
AcDbEntity
  8
1
 62
     0
100
AcDbTrace
 10
451.9389535067203
 20
162.4946145678861
 30
0.0
 11
452.9389535067203
 21
162.4946145678861
 31
0.0
 12
452.4389535067203
 22
165.4946145678861
 32
0.0
 13
452.4389535067203
 23
165.4946145678861
 33
0.0
  0
MTEXT
  5
16CEA
330
16BF2
100
AcDbEntity
  8
1
 62
     0
100
AcDbMText
 10
448.6889535067202
 20
148.9946145678862
 30
0.0
 40
4.5
 41
0.0
 71
     5
 72
     1
  1
\A1;33
  7
EXTFONT
 11
0.0000000000000001
 21
1.0
 31
0.0
 73
     1
 44
1.0
  0
POINT
  5
16CEB
330
16BF2
100
AcDbEntity
  8
DEFPOINTS
 62
     0
100
AcDbPoint
 10
358.5985740630736
 20
132.4946145678861
 30
0.0
  0
POINT
  5
16CEC
330
16BF2
100
AcDbEntity
  8
DEFPOINTS
 62
     0
100
AcDbPoint
 10
432.0985740630734
 20
165.4946145678861
 30
0.0
  0
POINT
  5
16CED
330
16BF2
100
AcDbEntity
  8
DEFPOINTS
 62
     0
100
AcDbPoint
 10
452.4389535067203
 20
165.4946145678861
 30
0.0
  0
ENDBLK
  5
16BFD
330
16BF2
100
AcDbEntity
  8
0
100
AcDbBlockEnd
  0
BLOCK
  5
16C33
330
16BFF
100
AcDbEntity
  8
0
100
AcDbBlockBegin
  2
*D20
 70
     1
 10
0.0
 20
0.0
 30
0.0
  3
*D20
  1

  0
LINE
  5
16CDC
330
16BFF
100
AcDbEntity
  8
1
 62
     0
370
    -2
100
AcDbLine
 10
433.5985740630734
 20
165.4946145678861
 30
0.0
 11
453.9389535067202
 21
165.4946145678861
 31
0.0
  0
LINE
  5
16CDD
330
16BFF
100
AcDbEntity
  8
1
 62
     0
370
    -2
100
AcDbLine
 10
433.5985740630734
 20
264.4946145678864
 30
0.0
 11
453.9389535067202
 21
264.4946145678864
 31
0.0
  0
LINE
  5
16CDE
330
16BFF
100
AcDbEntity
  8
1
 62
     0
370
    -2
100
AcDbLine
 10
452.4389535067203
 20
168.4946145678861
 30
0.0
 11
452.4389535067203
 21
261.4946145678865
 31
0.0
  0
SOLID
  5
16CDF
330
16BFF
100
AcDbEntity
  8
1
 62
     0
100
AcDbTrace
 10
451.9389535067203
 20
168.4946145678861
 30
0.0
 11
452.9389535067203
 21
168.4946145678861
 31
0.0
 12
452.4389535067203
 22
165.4946145678861
 32
0.0
 13
452.4389535067203
 23
165.4946145678861
 33
0.0
  0
SOLID
  5
16CE0
330
16BFF
100
AcDbEntity
  8
1
 62
     0
100
AcDbTrace
 10
451.9389535067203
 20
261.4946145678865
 30
0.0
 11
452.9389535067203
 21
261.4946145678865
 31
0.0
 12
452.4389535067203
 22
264.4946145678864
 32
0.0
 13
452.4389535067203
 23
264.4946145678864
 33
0.0
  0
MTEXT
  5
16CE1
330
16BFF
100
AcDbEntity
  8
1
 62
     0
100
AcDbMText
 10
448.6889535067202
 20
214.9946145678864
 30
0.0
 40
4.5
 41
0.0
 71
     5
 72
     1
  1
\A1;φ99
  7
EXTFONT
 11
0.0000000000000001
 21
1.0
 31
0.0
 73
     1
 44
1.0
  0
POINT
  5
16CE2
330
16BFF
100
AcDbEntity
  8
DEFPOINTS
 62
     0
100
AcDbPoint
 10
432.0985740630734
 20
165.4946145678861
 30
0.0
  0
POINT
  5
16CE3
330
16BFF
100
AcDbEntity
  8
DEFPOINTS
 62
     0
100
AcDbPoint
 10
432.0985740630734
 20
264.4946145678864
 30
0.0
  0
POINT
  5
16CE4
330
16BFF
100
AcDbEntity
  8
DEFPOINTS
 62
     0
100
AcDbPoint
 10
452.4389535067203
 20
264.4946145678864
 30
0.0
  0
ENDBLK
  5
16C3D
330
16BFF
100
AcDbEntity
  8
0
100
AcDbBlockEnd
  0
BLOCK
  5
16C0D
330
16C0C
100
AcDbEntity
  8
0
100
AcDbBlockBegin
  2
*D21
 70
     1
 10
0.0
 20
0.0
 30
0.0
  3
*D21
  1

  0
LINE
  5
16CD3
330
16C0C
100
AcDbEntity
  8
1
 62
     0
370
    -2
100
AcDbLine
 10
433.5985740630734
 20
264.4946145678864
 30
0.0
 11
453.9389535067202
 21
264.4946145678864
 31
0.0
  0
LINE
  5
16CD4
330
16C0C
100
AcDbEntity
  8
1
 62
     0
370
    -2
100
AcDbLine
 10
360.0985740630735
 20
297.4946145678864
 30
0.0
 11
453.9389535067202
 21
297.4946145678863
 31
0.0
  0
LINE
  5
16CD5
330
16C0C
100
AcDbEntity
  8
1
 62
     0
370
    -2
100
AcDbLine
 10
452.4389535067203
 20
267.4946145678865
 30
0.0
 11
452.4389535067203
 21
294.4946145678864
 31
0.0
  0
SOLID
  5
16CD6
330
16C0C
100
AcDbEntity
  8
1
 62
     0
100
AcDbTrace
 10
451.9389535067203
 20
267.4946145678865
 30
0.0
 11
452.9389535067203
 21
267.4946145678865
 31
0.0
 12
452.4389535067203
 22
264.4946145678864
 32
0.0
 13
452.4389535067203
 23
264.4946145678864
 33
0.0
  0
SOLID
  5
16CD7
330
16C0C
100
AcDbEntity
  8
1
 62
     0
100
AcDbTrace
 10
451.9389535067203
 20
294.4946145678864
 30
0.0
 11
452.9389535067203
 21
294.4946145678864
 31
0.0
 12
452.4389535067203
 22
297.4946145678863
 32
0.0
 13
452.4389535067203
 23
297.4946145678863
 33
0.0
  0
MTEXT
  5
16CD8
330
16C0C
100
AcDbEntity
  8
1
 62
     0
100
AcDbMText
 10
448.6889535067202
 20
280.9946145678865
 30
0.0
 40
4.5
 41
0.0
 71
     5
 72
     1
  1
\A1;33
  7
EXTFONT
 11
0.0000000000000001
 21
1.0
 31
0.0
 73
     1
 44
1.0
  0
POINT
  5
16CD9
330
16C0C
100
AcDbEntity
  8
DEFPOINTS
 62
     0
100
AcDbPoint
 10
432.0985740630734
 20
264.4946145678864
 30
0.0
  0
POINT
  5
16CDA
330
16C0C
100
AcDbEntity
  8
DEFPOINTS
 62
     0
100
AcDbPoint
 10
358.5985740630736
 20
297.4946145678864
 30
0.0
  0
POINT
  5
16CDB
330
16C0C
100
AcDbEntity
  8
DEFPOINTS
 62
     0
100
AcDbPoint
 10
452.4389535067203
 20
297.4946145678863
 30
0.0
  0
ENDBLK
  5
16C17
330
16C0C
100
AcDbEntity
  8
0
100
AcDbBlockEnd
  0
BLOCK
  5
16C1A
330
16C19
100
AcDbEntity
  8
0
100
AcDbBlockBegin
  2
*D22
 70
     1
 10
0.0
 20
0.0
 30
0.0
  3
*D22
  1

  0
LINE
  5
16CCA
330
16C19
100
AcDbEntity
  8
1
 62
     0
370
    -2
100
AcDbLine
 10
357.0985740630735
 20
138.5046025966003
 30
0.0
 11
357.0985740630735
 21
121.1381580096548
 31
0.0
  0
LINE
  5
16CCB
330
16C19
100
AcDbEntity
  8
1
 62
     0
370
    -2
100
AcDbLine
 10
432.0985740630734
 20
163.9946145678861
 30
0.0
 11
432.0985740630734
 21
121.1381580096548
 31
0.0
  0
LINE
  5
16CCC
330
16C19
100
AcDbEntity
  8
1
 62
     0
370
    -2
100
AcDbLine
 10
360.0985740630735
 20
122.6381580096548
 30
0.0
 11
429.0985740630734
 21
122.6381580096548
 31
0.0
  0
SOLID
  5
16CCD
330
16C19
100
AcDbEntity
  8
1
 62
     0
100
AcDbTrace
 10
360.0985740630735
 20
123.1381580096548
 30
0.0
 11
360.0985740630735
 21
122.1381580096548
 31
0.0
 12
357.0985740630735
 22
122.6381580096548
 32
0.0
 13
357.0985740630735
 23
122.6381580096548
 33
0.0
  0
SOLID
  5
16CCE
330
16C19
100
AcDbEntity
  8
1
 62
     0
100
AcDbTrace
 10
429.0985740630734
 20
123.1381580096548
 30
0.0
 11
429.0985740630734
 21
122.1381580096548
 31
0.0
 12
432.0985740630734
 22
122.6381580096548
 32
0.0
 13
432.0985740630734
 23
122.6381580096548
 33
0.0
  0
MTEXT
  5
16CCF
330
16C19
100
AcDbEntity
  8
1
 62
     0
100
AcDbMText
 10
394.5985740630734
 20
126.3881580096548
 30
0.0
 40
4.5
 41
0.0
 71
     5
 72
     1
  1
\A1;75
  7
EXTFONT
 73
     1
 44
1.0
  0
POINT
  5
16CD0
330
16C19
100
AcDbEntity
  8
DEFPOINTS
 62
     0
100
AcDbPoint
 10
357.0985740630735
 20
140.0046025966003
 30
0.0
  0
POINT
  5
16CD1
330
16C19
100
AcDbEntity
  8
DEFPOINTS
 62
     0
100
AcDbPoint
 10
432.0985740630734
 20
165.4946145678861
 30
0.0
  0
POINT
  5
16CD2
330
16C19
100
AcDbEntity
  8
DEFPOINTS
 62
     0
100
AcDbPoint
 10
432.0985740630734
 20
122.6381580096548
 30
0.0
  0
ENDBLK
  5
16C24
330
16C19
100
AcDbEntity
  8
0
100
AcDbBlockEnd
  0
BLOCK
  5
16C27
330
16C26
100
AcDbEntity
  8
0
100
AcDbBlockBegin
  2
*D23
 70
     1
 10
0.0
 20
0.0
 30
0.0
  3
*D23
  1

  0
LINE
  5
16CC1
330
16C26
100
AcDbEntity
  8
1
 62
     0
370
    -2
100
AcDbLine
 10
347.0985740630734
 20
164.9946145678862
 30
0.0
 11
347.0985740630734
 21
111.2846319953872
 31
0.0
  0
LINE
  5
16CC2
330
16C26
100
AcDbEntity
  8
1
 62
     0
370
    -2
100
AcDbLine
 10
432.0985740630734
 20
163.9946145678861
 30
0.0
 11
432.0985740630734
 21
111.2846319953872
 31
0.0
  0
LINE
  5
16CC3
330
16C26
100
AcDbEntity
  8
1
 62
     0
370
    -2
100
AcDbLine
 10
350.0985740630734
 20
112.7846319953872
 30
0.0
 11
429.0985740630734
 21
112.7846319953872
 31
0.0
  0
SOLID
  5
16CC4
330
16C26
100
AcDbEntity
  8
1
 62
     0
100
AcDbTrace
 10
350.0985740630734
 20
113.2846319953872
 30
0.0
 11
350.0985740630734
 21
112.2846319953872
 31
0.0
 12
347.0985740630734
 22
112.7846319953872
 32
0.0
 13
347.0985740630734
 23
112.7846319953872
 33
0.0
  0
SOLID
  5
16CC5
330
16C26
100
AcDbEntity
  8
1
 62
     0
100
AcDbTrace
 10
429.0985740630734
 20
113.2846319953872
 30
0.0
 11
429.0985740630734
 21
112.2846319953872
 31
0.0
 12
432.0985740630734
 22
112.7846319953872
 32
0.0
 13
432.0985740630734
 23
112.7846319953872
 33
0.0
  0
MTEXT
  5
16CC6
330
16C26
100
AcDbEntity
  8
1
 62
     0
100
AcDbMText
 10
389.5985740630734
 20
116.5346319953872
 30
0.0
 40
4.5
 41
0.0
 71
     5
 72
     1
  1
\A1;85
  7
EXTFONT
 73
     1
 44
1.0
  0
POINT
  5
16CC7
330
16C26
100
AcDbEntity
  8
DEFPOINTS
 62
     0
100
AcDbPoint
 10
347.0985740630734
 20
166.4946145678862
 30
0.0
  0
POINT
  5
16CC8
330
16C26
100
AcDbEntity
  8
DEFPOINTS
 62
     0
100
AcDbPoint
 10
432.0985740630734
 20
165.4946145678861
 30
0.0
  0
POINT
  5
16CC9
330
16C26
100
AcDbEntity
  8
DEFPOINTS
 62
     0
100
AcDbPoint
 10
432.0985740630734
 20
112.7846319953872
 30
0.0
  0
ENDBLK
  5
16C31
330
16C26
100
AcDbEntity
  8
0
100
AcDbBlockEnd
  0
ENDSEC
  0
SECTION
  2
ENTITIES
  0
TEXT
  5
B037
330
19
100
AcDbEntity
  8
1
 62
     0
100
AcDbText
 10
510.6756432445422
 20
35.93466203036124
 30
0.0
 40
5.249475
  1
行
 41
1.469387755102049
 72
     5
 11
517.8749232445422
 21
35.93466203036124
 31
0.0
100
AcDbText
  0
TEXT
  5
B038
330
19
100
AcDbEntity
  8
1
 62
     0
100
AcDbText
 10
287.3858789540921
 20
16.82175701201126
 30
0.0
 40
5.249475
  1
Ｂ４
 41
0.6857142857142901
 72
     5
 11
294.5851589540922
 21
16.82175701201126
 31
0.0
100
AcDbText
  0
TEXT
  5
B039
330
19
100
AcDbEntity
  8
1
 62
     0
100
AcDbText
 10
299.7947929385921
 20
15.27064263896128
 30
0.0
 40
5.249475
  1
２
 41
0.8181818181818563
 72
     5
 11
302.9444779385922
 21
15.27064263896128
 31
0.0
100
AcDbText
  0
TEXT
  5
B03A
330
19
100
AcDbEntity
  8
1
 62
     0
100
AcDbText
 10
303.5864057393923
 20
10.27260799241125
 30
0.0
 40
5.249475
  1
３
 41
0.8181818181818121
 72
     5
 11
306.7360907393922
 21
10.27260799241125
 31
0.0
100
AcDbText
  0
TEXT
  5
B03B
330
19
100
AcDbEntity
  8
1
 62
     0
100
AcDbText
 10
281.0424082045072
 20
24.23263585001123
 30
0.0
 40
5.249475
  1
ＩＭ－１０フレッシュ１００タイフーン 角型ガラリ
 41
0.85
 11
281.0424082045072
 21
24.23263585001123
 31
0.0
100
AcDbText
 73
     1
  0
LINE
  5
B045
330
19
100
AcDbEntity
  8
1
 62
     0
100
AcDbLine
 10
503.4201778812905
 20
27.08964829664367
 30
0.0
 11
408.1514902945311
 21
27.08964829664367
 31
0.0
  0
LINE
  5
B046
330
19
100
AcDbEntity
  8
1
 62
     0
100
AcDbLine
 10
408.1514902945311
 20
27.08964829664367
 30
0.0
 11
408.1514902945311
 21
26.35300951213916
 31
0.0
  0
LINE
  5
B047
330
19
100
AcDbEntity
  8
1
 62
     0
100
AcDbLine
 10
408.1514902945311
 20
26.35300951213916
 30
0.0
 11
503.4201778812905
 21
26.35300951213916
 31
0.0
  0
LINE
  5
B048
330
19
100
AcDbEntity
  8
1
 62
     0
100
AcDbLine
 10
503.4201778812905
 20
27.08964829664367
 30
0.0
 11
503.4201778812905
 21
26.35300951213916
 31
0.0
  0
ARC
  5
B049
330
19
100
AcDbEntity
  8
1
 62
     0
100
AcDbCircle
 10
422.5606727825763
 20
14.40913422921827
 30
0.0
 40
4.441637600869094
100
AcDbArc
 50
96.1009625522
 51
124.8454610403
  0
ARC
  5
B04A
330
19
100
AcDbEntity
  8
1
 62
     0
100
AcDbCircle
 10
422.2032437387051
 20
17.75303522592608
 30
0.0
 40
1.07868339647244
100
AcDbArc
 50
329.4086601059
 51
96.1003129342
  0
ARC
  5
B04B
330
19
100
AcDbEntity
  8
1
 62
     0
100
AcDbCircle
 10
422.2032437387051
 20
17.75303522592608
 30
0.0
 40
1.586297370098429
100
AcDbArc
 50
72.0665006281
 51
96.10259269430002
  0
ARC
  5
B04C
330
19
100
AcDbEntity
  8
1
 62
     0
100
AcDbCircle
 10
422.5606727825763
 20
14.40913422921827
 30
0.0
 40
4.949253243228194
100
AcDbArc
 50
96.1016266182
 51
119.032207415
  0
LINE
  5
B04D
330
19
100
AcDbEntity
  8
1
 62
     0
100
AcDbLine
 10
422.6916840407902
 20
19.26225795340966
 30
0.0
 11
423.4890591293066
 21
20.76700505810024
 31
0.0
  0
ARC
  5
B04E
330
19
100
AcDbEntity
  8
1
 62
     0
100
AcDbCircle
 10
419.3321567458682
 20
14.36580980004433
 30
0.0
 40
4.949254077594749
100
AcDbArc
 50
95.3489944492
 51
103.1551886064
  0
ARC
  5
B04F
330
19
100
AcDbEntity
  8
1
 62
     0
100
AcDbCircle
 10
419.0068213551109
 20
17.84046840293402
 30
0.0
 40
1.459394815373054
100
AcDbArc
 50
37.8766155099
 51
95.34883735399999
  0
ARC
  5
B050
330
19
100
AcDbEntity
  8
1
 62
     0
100
AcDbCircle
 10
428.5441565963539
 20
13.72762136697017
 30
0.0
 40
0.067639794694065
100
AcDbArc
 50
270.327950155
 51
82.8967256496
  0
ARC
  5
B051
330
19
100
AcDbEntity
  8
1
 62
     0
100
AcDbCircle
 10
427.6600191735885
 20
172.2874225992904
 30
0.0
 40
158.6299159852936
100
AcDbArc
 50
267.6763693047
 51
270.3194844471
  0
ARC
  5
B052
330
19
100
AcDbEntity
  8
1
 62
     0
100
AcDbCircle
 10
420.6791957192989
 20
-49.16686065057027
 30
0.0
 40
63.451962389078
100
AcDbArc
 50
82.87218384880002
 51
89.05331282739998
  0
ARC
  5
B053
330
19
100
AcDbEntity
  8
1
 62
     0
100
AcDbCircle
 10
421.2453136089983
 20
14.2000548927929
 30
0.0
 40
0.412437787646445
100
AcDbArc
 50
149.4094876448
 51
267.6700117266
  0
LINE
  5
B054
330
19
100
AcDbEntity
  8
1
 62
     0
100
AcDbLine
 10
422.6947812652367
 20
17.46243347155794
 30
0.0
 11
420.8902742339866
 21
14.40994524810818
 31
0.0
  0
ARC
  5
B055
330
19
100
AcDbEntity
  8
1
 62
     0
100
AcDbCircle
 10
421.7346416930963
 20
14.46667318299731
 30
0.0
 40
0.19035590500575
100
AcDbArc
 50
149.4078781737
 51
267.8657786493
  0
LINE
  5
B056
330
19
100
AcDbEntity
  8
1
 62
     0
100
AcDbLine
 10
423.1317702615667
 20
17.20410225926278
 30
0.0
 11
421.5707891758865
 21
14.56354488445848
 31
0.0
  0
ARC
  5
B057
330
19
100
AcDbEntity
  8
1
 62
     0
100
AcDbCircle
 10
422.2032437387051
 20
17.75303522592608
 30
0.0
 40
0.5710676498237701
100
AcDbArc
 50
329.4074321343
 51
90.0
  0
ARC
  5
B058
330
19
100
AcDbEntity
  8
1
 62
     0
100
AcDbCircle
 10
421.8301883966204
 20
17.71778427287401
 30
0.0
 40
0.038071185550695
100
AcDbArc
 50
332.0826232636
 51
102.443817788
  0
ARC
  5
B059
330
19
100
AcDbEntity
  8
1
 62
     0
100
AcDbCircle
 10
422.5606727825763
 20
14.40913422921827
 30
0.0
 40
3.42640735909659
100
AcDbArc
 50
102.4499802294
 51
144.4999963453
  0
LINE
  5
B05A
330
19
100
AcDbEntity
  8
1
 62
     0
100
AcDbLine
 10
417.5712244583079
 20
9.599461760216655
 30
0.0
 11
421.8638306619574
 21
17.69995854482514
 31
0.0
  0
LINE
  5
B05B
330
19
100
AcDbEntity
  8
1
 62
     0
100
AcDbLine
 10
417.683505518779
 20
13.472033601253
 30
0.0
 11
419.7711749582064
 21
16.39886395874603
 31
0.0
  0
ARC
  5
B05C
330
19
100
AcDbEntity
  8
1
 62
     0
100
AcDbCircle
 10
422.5606727825763
 20
14.40913422921827
 30
0.0
 40
3.934022375668274
100
AcDbArc
 50
94.6158781201
 51
144.4998987191
  0
LINE
  5
B05D
330
19
100
AcDbEntity
  8
1
 62
     0
100
AcDbLine
 10
417.2702596847452
 20
13.76681060105491
 30
0.0
 11
419.3579291241228
 21
16.69363762098166
 31
0.0
  0
ARC
  5
B05E
330
19
100
AcDbEntity
  8
1
 62
     0
100
AcDbCircle
 10
419.9866656826788
 20
18.10644922559166
 30
0.0
 40
0.063451968318585
100
AcDbArc
 50
195.1803556007
 51
304.8107144259
  0
ARC
  5
B05F
330
19
100
AcDbEntity
  8
1
 62
     0
100
AcDbCircle
 10
419.0068213551109
 20
17.84046840293402
 30
0.0
 40
0.9517794858826649
100
AcDbArc
 50
15.1875435022
 51
95.34402286379998
  0
LINE
  5
B060
330
19
100
AcDbEntity
  8
1
 62
     0
100
AcDbLine
 10
413.8330681523241
 20
13.87965904103217
 30
0.0
 11
416.2965363804641
 21
16.86815353479497
 31
0.0
  0
ARC
  5
B061
330
19
100
AcDbEntity
  8
1
 62
     0
100
AcDbCircle
 10
416.8703773060324
 20
18.18415351343586
 30
0.0
 40
0.101523150619605
100
AcDbArc
 50
202.8029623621
 51
302.7955549917
  0
ARC
  5
B062
330
19
100
AcDbEntity
  8
1
 62
     0
100
AcDbCircle
 10
416.0163777459792
 20
17.82504903132533
 30
0.0
 40
0.8248755752928898
100
AcDbArc
 50
22.8070708917
 51
111.5233169412
  0
ARC
  5
B063
330
19
100
AcDbEntity
  8
1
 62
     0
100
AcDbCircle
 10
419.3321567458682
 20
14.36580980004433
 30
0.0
 40
4.441637600869094
100
AcDbArc
 50
95.34798072499999
 51
122.8112139665
  0
ARC
  5
B064
330
19
100
AcDbEntity
  8
1
 62
     0
100
AcDbCircle
 10
423.6282206268151
 20
-1.477090557524974
 30
0.0
 40
21.57366667827393
100
AcDbArc
 50
111.5219641352
 51
133.5399143013
  0
ARC
  5
B065
330
19
100
AcDbEntity
  8
1
 62
     0
100
AcDbCircle
 10
418.732930595076
 20
17.67494044748505
 30
0.0
 40
0.5710676498237701
100
AcDbArc
 50
324.499147035
 51
100.2613576738
  0
ARC
  5
B066
330
19
100
AcDbEntity
  8
1
 62
     0
100
AcDbCircle
 10
419.3321567458682
 20
14.36580980004433
 30
0.0
 40
3.934021958509994
100
AcDbArc
 50
100.2636565865
 51
140.5003212498
  0
LINE
  5
B067
330
19
100
AcDbEntity
  8
1
 62
     0
100
AcDbLine
 10
416.8570272007766
 20
14.06158760080692
 30
0.0
 11
419.1978346615701
 21
17.34331715718062
 31
0.0
  0
LINE
  5
B068
330
19
100
AcDbEntity
  8
1
 62
     0
100
AcDbLine
 10
419.2578567349123
 20
20.76700505810024
 30
0.0
 11
418.2066894699016
 21
19.18002464236312
 31
0.0
  0
ARC
  5
B069
330
19
100
AcDbEntity
  8
1
 62
     0
100
AcDbCircle
 10
418.4342820648159
 20
17.47479566906449
 30
0.0
 40
0.19035590500575
100
AcDbArc
 50
324.499692265
 51
106.0980186906
  0
ARC
  5
B06A
330
19
100
AcDbEntity
  8
1
 62
     0
100
AcDbCircle
 10
419.3321567458682
 20
14.36580980004433
 30
0.0
 40
3.42640610752176
100
AcDbArc
 50
106.1081160795
 51
140.4994966367
  0
LINE
  5
B06B
330
19
100
AcDbEntity
  8
1
 62
     0
100
AcDbLine
 10
418.5892500869639
 20
17.36425679730715
 30
0.0
 11
416.4437079411361
 21
14.35635458796022
 31
0.0
  0
LINE
  5
B06C
330
19
100
AcDbEntity
  8
1
 62
     0
100
AcDbLine
 10
415.5335311380191
 20
15.14442799063843
 30
0.0
 11
416.6883018950943
 21
16.54527456337118
 31
0.0
  0
LINE
  5
B06D
330
19
100
AcDbEntity
  8
1
 62
     0
100
AcDbLine
 10
411.8605633961267
 20
9.599461760216655
 30
0.0
 11
415.5335311380191
 21
15.14442799063843
 31
0.0
  0
ARC
  5
B06E
330
19
100
AcDbEntity
  8
1
 62
     0
100
AcDbCircle
 10
417.0636334301873
 20
13.91419242584848
 30
0.0
 40
0.761423672167785
100
AcDbArc
 50
144.5016167152
 51
324.4994878029
  0
ARC
  5
B06F
330
19
100
AcDbEntity
  8
1
 62
     0
100
AcDbCircle
 10
417.0636334301873
 20
13.91419242584848
 30
0.0
 40
0.253807873324335
100
AcDbArc
 50
144.4967452361
 51
324.5005973403
  0
ARC
  5
B070
330
19
100
AcDbEntity
  8
1
 62
     0
100
AcDbCircle
 10
415.9661145995967
 20
17.76409245059315
 30
0.0
 40
0.31725980254683
100
AcDbArc
 50
320.4977339273
 51
45.28212537369999
  0
ARC
  5
B071
330
19
100
AcDbEntity
  8
1
 62
     0
100
AcDbCircle
 10
415.9215052227804
 20
17.71900246999215
 30
0.0
 40
0.3807118100115
100
AcDbArc
 50
45.2862669635
 51
111.8777053195
  0
LINE
  5
B072
330
19
100
AcDbEntity
  8
1
 62
     0
100
AcDbLine
 10
413.4414294636596
 20
14.20254468743852
 30
0.0
 11
416.2109021300954
 21
17.56228892156426
 31
0.0
  0
ARC
  5
B073
330
19
100
AcDbEntity
  8
1
 62
     0
100
AcDbCircle
 10
423.6282206268151
 20
-1.477090557524974
 30
0.0
 40
21.06605228748966
100
AcDbArc
 50
111.874198845
 51
133.5398972513
  0
ARC
  5
B074
330
19
100
AcDbEntity
  8
1
 62
     0
100
AcDbCircle
 10
413.6371954075572
 20
14.04109518915297
 30
0.0
 40
0.253807873324335
100
AcDbArc
 50
140.4885299158
 51
320.5044492925
  0
ARC
  5
B075
330
19
100
AcDbEntity
  8
1
 62
     0
100
AcDbCircle
 10
408.9418031773388
 20
13.97764881382497
 30
0.0
 40
0.253807873324335
100
AcDbArc
 50
133.5444176405
 51
313.5346408607
  0
LINE
  5
B076
330
19
100
AcDbEntity
  8
1
 62
     0
100
AcDbLine
 10
419.2578567349123
 20
20.76700505810024
 30
0.0
 11
423.4890591293066
 21
20.76700505810024
 31
0.0
  0
LINE
  5
B077
330
19
100
AcDbEntity
  8
1
 62
     0
100
AcDbLine
 10
419.4679873920951
 20
21.08426363516966
 30
0.0
 11
423.6571636550729
 21
21.08426363516966
 31
0.0
  0
LINE
  5
B078
330
19
100
AcDbEntity
  8
1
 62
     0
100
AcDbLine
 10
419.4679873920951
 20
21.08426363516966
 30
0.0
 11
421.6956393605196
 21
24.44722190710948
 31
0.0
  0
LINE
  5
B079
330
19
100
AcDbEntity
  8
1
 62
     0
100
AcDbLine
 10
423.6571636550729
 20
21.08426363516966
 30
0.0
 11
425.439309259939
 21
24.44722190710948
 31
0.0
  0
LINE
  5
B07A
330
19
100
AcDbEntity
  8
1
 62
     0
100
AcDbLine
 10
411.8605633961267
 20
9.599461760216655
 30
0.0
 11
417.5712244583079
 21
9.599461760216655
 31
0.0
  0
LINE
  5
B07B
330
19
100
AcDbEntity
  8
1
 62
     0
100
AcDbLine
 10
425.439309259939
 20
24.44722190710948
 30
0.0
 11
421.6956393605196
 21
24.44722190710948
 31
0.0
  0
LINE
  5
B07C
330
19
100
AcDbEntity
  8
1
 62
     0
100
AcDbLine
 10
519.2616264149569
 20
12.05636173654753
 30
0.0
 11
521.4876763706984
 21
12.05636173654753
 31
0.0
  0
LINE
  5
B07D
330
19
100
AcDbEntity
  8
1
 62
     0
100
AcDbLine
 10
516.428413670816
 20
12.05636173654753
 30
0.0
 11
518.6545170269671
 21
12.05636173654753
 31
0.0
  0
LINE
  5
B07E
330
19
100
AcDbEntity
  8
1
 62
     0
100
AcDbLine
 10
517.0355230587556
 20
13.47296810864284
 30
0.0
 11
517.0355230587556
 21
14.25045154027404
 31
0.0
  0
LINE
  5
B07F
330
19
100
AcDbEntity
  8
1
 62
     0
100
AcDbLine
 10
501.4023361675921
 20
13.42294526412755
 30
0.0
 11
501.5949514866339
 21
12.84431498829204
 31
0.0
  0
ARC
  5
B080
330
19
100
AcDbEntity
  8
1
 62
     0
100
AcDbCircle
 10
494.8278899182182
 20
28.2177255181895
 30
0.0
 40
16.18976613062308
100
AcDbArc
 50
285.0229261013
 51
293.9592173386
  0
ARC
  5
B081
330
19
100
AcDbEntity
  8
1
 62
     0
100
AcDbCircle
 10
494.8278899182182
 20
28.2177255181895
 30
0.0
 40
16.18976613062308
100
AcDbArc
 50
273.3942614576
 51
282.8094380971
  0
ARC
  5
B082
330
19
100
AcDbEntity
  8
1
 62
     0
100
AcDbCircle
 10
494.8278899182182
 20
28.2177255181895
 30
0.0
 40
16.79688719994433
100
AcDbArc
 50
273.2714413751
 51
293.7589100609
  0
LINE
  5
B083
330
19
100
AcDbEntity
  8
1
 62
     0
100
AcDbLine
 10
518.6545170269671
 20
16.91329024077291
 30
0.0
 11
518.6545170269671
 21
12.05636173654753
 31
0.0
  0
LINE
  5
B084
330
19
100
AcDbEntity
  8
1
 62
     0
100
AcDbLine
 10
516.8331888630486
 20
16.91329024077291
 30
0.0
 11
518.6545170269671
 21
16.91329024077291
 31
0.0
  0
LINE
  5
B085
330
19
100
AcDbEntity
  8
1
 62
     0
100
AcDbLine
 10
516.8331888630486
 20
17.52040630379488
 30
0.0
 11
516.8331888630486
 21
16.91329024077291
 31
0.0
  0
LINE
  5
B086
330
19
100
AcDbEntity
  8
1
 62
     0
100
AcDbLine
 10
518.6545170269671
 20
17.52040630379488
 30
0.0
 11
516.8331888630486
 21
17.52040630379488
 31
0.0
  0
LINE
  5
B087
330
19
100
AcDbEntity
  8
1
 62
     0
100
AcDbLine
 10
518.6545170269671
 20
19.54412873886215
 30
0.0
 11
518.6545170269671
 21
17.52040630379488
 31
0.0
  0
LINE
  5
B088
330
19
100
AcDbEntity
  8
1
 62
     0
100
AcDbLine
 10
519.2616264149569
 20
19.54412873886215
 30
0.0
 11
518.6545170269671
 21
19.54412873886215
 31
0.0
  0
LINE
  5
B089
330
19
100
AcDbEntity
  8
1
 62
     0
100
AcDbLine
 10
519.2616264149569
 20
17.52040630379488
 30
0.0
 11
519.2616264149569
 21
19.54412873886215
 31
0.0
  0
LINE
  5
B08A
330
19
100
AcDbEntity
  8
1
 62
     0
100
AcDbLine
 10
521.0829011784158
 20
17.52040630379488
 30
0.0
 11
519.2616264149569
 21
17.52040630379488
 31
0.0
  0
LINE
  5
B08B
330
19
100
AcDbEntity
  8
1
 62
     0
100
AcDbLine
 10
521.0829011784158
 20
16.91329024077291
 30
0.0
 11
521.0829011784158
 21
17.52040630379488
 31
0.0
  0
LINE
  5
B08C
330
19
100
AcDbEntity
  8
1
 62
     0
100
AcDbLine
 10
519.2616264149569
 20
16.91329024077291
 30
0.0
 11
521.0829011784158
 21
16.91329024077291
 31
0.0
  0
LINE
  5
B08D
330
19
100
AcDbEntity
  8
1
 62
     0
100
AcDbLine
 10
519.2616264149569
 20
12.05636173654753
 30
0.0
 11
519.2616264149569
 21
16.91329024077291
 31
0.0
  0
LINE
  5
B08E
330
19
100
AcDbEntity
  8
1
 62
     0
100
AcDbLine
 10
516.428413670816
 20
11.44924567352561
 30
0.0
 11
521.4876763706984
 21
11.44924567352561
 31
0.0
  0
LINE
  5
B08F
330
19
100
AcDbEntity
  8
1
 62
     0
100
AcDbLine
 10
516.428413670816
 20
12.05636173654753
 30
0.0
 11
516.428413670816
 21
11.44924567352561
 31
0.0
  0
LINE
  5
B090
330
19
100
AcDbEntity
  8
1
 62
     0
100
AcDbLine
 10
521.4876763706984
 20
11.44924567352561
 30
0.0
 11
521.4876763706984
 21
12.05636173654753
 31
0.0
  0
LINE
  5
B091
330
19
100
AcDbEntity
  8
1
 62
     0
100
AcDbLine
 10
514.4046979107813
 20
11.44924567352561
 30
0.0
 11
515.0117538983113
 21
11.44924567352561
 31
0.0
  0
LINE
  5
B092
330
19
100
AcDbEntity
  8
1
 62
     0
100
AcDbLine
 10
514.4046979107813
 20
18.12752570433307
 30
0.0
 11
514.4046979107813
 21
19.54412873886215
 31
0.0
  0
LINE
  5
B093
330
19
100
AcDbEntity
  8
1
 62
     0
100
AcDbLine
 10
513.1904791348022
 20
18.12752570433307
 30
0.0
 11
514.4046979107813
 21
18.12752570433307
 31
0.0
  0
LINE
  5
B094
330
19
100
AcDbEntity
  8
1
 62
     0
100
AcDbLine
 10
513.1904791348022
 20
17.52040630379488
 30
0.0
 11
513.1904791348022
 21
18.12752570433307
 31
0.0
  0
LINE
  5
B095
330
19
100
AcDbEntity
  8
1
 62
     0
100
AcDbLine
 10
515.0117538983113
 20
18.12752570433307
 30
0.0
 11
516.6307478665228
 21
18.12752570433307
 31
0.0
  0
LINE
  5
B096
330
19
100
AcDbEntity
  8
1
 62
     0
100
AcDbLine
 10
515.0117538983113
 20
19.54412873886215
 30
0.0
 11
515.0117538983113
 21
18.12752570433307
 31
0.0
  0
LINE
  5
B097
330
19
100
AcDbEntity
  8
1
 62
     0
100
AcDbLine
 10
514.4046979107813
 20
19.54412873886215
 30
0.0
 11
515.0117538983113
 21
19.54412873886215
 31
0.0
  0
LINE
  5
B098
330
19
100
AcDbEntity
  8
1
 62
     0
100
AcDbLine
 10
511.0360391437978
 20
14.08008417166482
 30
0.0
 11
512.5833697468628
 21
14.08008417166482
 31
0.0
  0
LINE
  5
B099
330
19
100
AcDbEntity
  8
1
 62
     0
100
AcDbLine
 10
504.6908409023803
 20
14.08008417166482
 30
0.0
 11
506.6756811558547
 21
14.08008417166482
 31
0.0
  0
LINE
  5
B09A
330
19
100
AcDbEntity
  8
1
 62
     0
100
AcDbLine
 10
511.0360391437978
 20
14.08008417166482
 30
0.0
 11
512.721623437161
 21
11.72076345238227
 31
0.0
  0
LINE
  5
B09B
330
19
100
AcDbEntity
  8
1
 62
     0
100
AcDbLine
 10
504.4883999058544
 20
11.44701954351095
 30
0.0
 11
504.4883999058544
 21
12.05636173654753
 31
0.0
  0
LINE
  5
B09C
330
19
100
AcDbEntity
  8
1
 62
     0
100
AcDbLine
 10
508.2323568325686
 20
19.54412873886215
 30
0.0
 11
509.0418538166745
 21
19.54412873886215
 31
0.0
  0
LINE
  5
B09D
330
19
100
AcDbEntity
  8
1
 62
     0
100
AcDbLine
 10
505.7026720821931
 20
15.90143236073058
 30
0.0
 11
511.5714851666407
 21
15.90143236073058
 31
0.0
  0
LINE
  5
B09E
330
19
100
AcDbEntity
  8
1
 62
     0
100
AcDbLine
 10
512.5833697468628
 20
14.68719689717048
 30
0.0
 11
504.6908409023803
 21
14.68719689717048
 31
0.0
  0
LINE
  5
B09F
330
19
100
AcDbEntity
  8
1
 62
     0
100
AcDbLine
 10
512.5833697468628
 20
14.08008417166482
 30
0.0
 11
512.5833697468628
 21
14.68719689717048
 31
0.0
  0
LINE
  5
B0A0
330
19
100
AcDbEntity
  8
1
 62
     0
100
AcDbLine
 10
504.6908409023803
 20
14.68719689717048
 30
0.0
 11
504.6908409023803
 21
14.08008417166482
 31
0.0
  0
LINE
  5
B0A1
330
19
100
AcDbEntity
  8
1
 62
     0
100
AcDbLine
 10
495.7864274777259
 20
11.44821771543164
 30
0.0
 11
495.7864274777259
 21
12.05636173654753
 31
0.0
  0
LINE
  5
B0A2
330
19
100
AcDbEntity
  8
1
 62
     0
100
AcDbLine
 10
504.0837315144408
 20
11.44924567352561
 30
0.0
 11
504.0837315144408
 21
12.1142778308089
 31
0.0
  0
ARC
  5
B0A3
330
19
100
AcDbEntity
  8
1
 62
     0
100
AcDbCircle
 10
505.2737598996008
 20
14.46058887253926
 30
0.0
 40
2.630841627026249
100
AcDbArc
 50
201.9012342124
 51
243.1062761218
  0
ARC
  5
B0A4
330
19
100
AcDbEntity
  8
1
 62
     0
100
AcDbCircle
 10
505.2737598996008
 20
14.46058887253926
 30
0.0
 40
3.237953518165409
100
AcDbArc
 50
201.5620524504
 51
248.436964217
  0
LINE
  5
B0A5
330
19
100
AcDbEntity
  8
1
 62
     0
100
AcDbLine
 10
502.6671251423455
 20
19.54412873886215
 30
0.0
 11
502.2724960301033
 21
19.08272907504297
 31
0.0
  0
LINE
  5
B0A6
330
19
100
AcDbEntity
  8
1
 62
     0
100
AcDbLine
 10
502.6671251423455
 20
19.54412873886215
 30
0.0
 11
503.9901205761709
 21
18.41265391551045
 31
0.0
  0
LINE
  5
B0A7
330
19
100
AcDbEntity
  8
1
 62
     0
100
AcDbLine
 10
495.9888150738422
 20
15.49669054371011
 30
0.0
 11
495.9888150738422
 21
16.10380326921577
 31
0.0
  0
LINE
  5
B0A8
330
19
100
AcDbEntity
  8
1
 62
     0
100
AcDbLine
 10
498.4173060261595
 20
15.49669054371011
 30
0.0
 11
495.9888150738422
 21
15.49669054371011
 31
0.0
  0
LINE
  5
B0A9
330
19
100
AcDbEntity
  8
1
 62
     0
100
AcDbLine
 10
501.0481311741338
 20
15.49669054371011
 30
0.0
 11
499.0243620136897
 21
15.49669054371011
 31
0.0
  0
LINE
  5
B0AA
330
19
100
AcDbEntity
  8
1
 62
     0
100
AcDbLine
 10
501.0481311741338
 20
16.10380326921577
 30
0.0
 11
501.0481311741338
 21
15.49669054371011
 31
0.0
  0
LINE
  5
B0AB
330
19
100
AcDbEntity
  8
1
 62
     0
100
AcDbLine
 10
495.9888150738422
 20
16.10380326921577
 30
0.0
 11
501.0481311741338
 21
16.10380326921577
 31
0.0
  0
LINE
  5
B0AC
330
19
100
AcDbEntity
  8
1
 62
     0
100
AcDbLine
 10
504.0837315144408
 20
17.52040630379488
 30
0.0
 11
504.0837315144408
 21
18.12752570433307
 31
0.0
  0
LINE
  5
B0AD
330
19
100
AcDbEntity
  8
1
 62
     0
100
AcDbLine
 10
495.7864274777259
 20
18.12752570433307
 30
0.0
 11
495.7864274777259
 21
17.52040630379488
 31
0.0
  0
LINE
  5
B0AE
330
19
100
AcDbEntity
  8
1
 62
     0
100
AcDbLine
 10
489.7152801975714
 20
16.5085484237525
 30
0.0
 11
490.3827854618693
 21
16.5085484237525
 31
0.0
  0
LINE
  5
B0AF
330
19
100
AcDbEntity
  8
1
 62
     0
100
AcDbLine
 10
487.0844550495971
 20
13.03606588803436
 30
0.0
 11
488.2987272259355
 21
15.66690104860734
 31
0.0
  0
LINE
  5
B0B0
330
19
100
AcDbEntity
  8
1
 62
     0
100
AcDbLine
 10
487.0844550495971
 20
13.03606588803436
 30
0.0
 11
487.0844550495971
 21
14.48482598868523
 31
0.0
  0
LINE
  5
B0B1
330
19
100
AcDbEntity
  8
1
 62
     0
100
AcDbLine
 10
488.9057832135155
 20
15.57566976659794
 30
0.0
 11
490.1200553898542
 21
14.15905004443769
 31
0.0
  0
LINE
  5
B0B2
330
19
100
AcDbEntity
  8
1
 62
     0
100
AcDbLine
 10
490.1200553898542
 20
14.15905004443769
 30
0.0
 11
490.1200553898542
 21
15.09194205170721
 31
0.0
  0
LINE
  5
B0B3
330
19
100
AcDbEntity
  8
1
 62
     0
100
AcDbLine
 10
488.9057832135155
 20
16.5085484237525
 30
0.0
 11
488.9057832135155
 21
17.11566448677448
 31
0.0
  0
LINE
  5
B0B4
330
19
100
AcDbEntity
  8
1
 62
     0
100
AcDbLine
 10
491.9417573566885
 20
15.29431629770866
 30
0.0
 11
492.4472457432445
 21
15.29431629770866
 31
0.0
  0
LINE
  5
B0B5
330
19
100
AcDbEntity
  8
1
 62
     0
100
AcDbLine
 10
490.1200553898542
 20
15.29431629770866
 30
0.0
 11
491.3342741657831
 21
15.29431629770866
 31
0.0
  0
LINE
  5
B0B6
330
19
100
AcDbEntity
  8
1
 62
     0
100
AcDbLine
 10
494.1674335095144
 20
15.29431629770866
 30
0.0
 11
495.3817590863122
 21
15.29431629770866
 31
0.0
  0
LINE
  5
B0B7
330
19
100
AcDbEntity
  8
1
 62
     0
100
AcDbLine
 10
493.0544085316434
 20
15.29431629770866
 30
0.0
 11
493.5600571194276
 21
15.29431629770866
 31
0.0
  0
LINE
  5
B0B8
330
19
100
AcDbEntity
  8
1
 62
     0
100
AcDbLine
 10
493.0544085316434
 20
18.12752570433307
 30
0.0
 11
495.1793714901459
 21
18.12752570433307
 31
0.0
  0
LINE
  5
B0B9
330
19
100
AcDbEntity
  8
1
 62
     0
100
AcDbLine
 10
493.0544085316434
 20
17.52040630379488
 30
0.0
 11
495.1793714901459
 21
17.52040630379488
 31
0.0
  0
LINE
  5
B0BA
330
19
100
AcDbEntity
  8
1
 62
     0
100
AcDbLine
 10
493.0544085316434
 20
15.90143236073058
 30
0.0
 11
495.3817590863122
 21
15.90143236073058
 31
0.0
  0
LINE
  5
B0BB
330
19
100
AcDbEntity
  8
1
 62
     0
100
AcDbLine
 10
490.1200553898542
 20
15.90143236073058
 30
0.0
 11
492.4472457432445
 21
15.90143236073058
 31
0.0
  0
LINE
  5
B0BC
330
19
100
AcDbEntity
  8
1
 62
     0
100
AcDbLine
 10
492.4472457432445
 20
18.12752570433307
 30
0.0
 11
492.4472457432445
 21
19.54412873886215
 31
0.0
  0
LINE
  5
B0BD
330
19
100
AcDbEntity
  8
1
 62
     0
100
AcDbLine
 10
492.4472457432445
 20
15.90143236073058
 30
0.0
 11
492.4472457432445
 21
17.52040630379488
 31
0.0
  0
LINE
  5
B0BE
330
19
100
AcDbEntity
  8
1
 62
     0
100
AcDbLine
 10
493.0544085316434
 20
18.12752570433307
 30
0.0
 11
493.0544085316434
 21
19.54412873886215
 31
0.0
  0
LINE
  5
B0BF
330
19
100
AcDbEntity
  8
1
 62
     0
100
AcDbLine
 10
493.0544085316434
 20
15.90143236073058
 30
0.0
 11
493.0544085316434
 21
17.52040630379488
 31
0.0
  0
LINE
  5
B0C0
330
19
100
AcDbEntity
  8
1
 62
     0
100
AcDbLine
 10
493.0544085316434
 20
11.44924567352561
 30
0.0
 11
492.4472457432445
 21
11.44924567352561
 31
0.0
  0
LINE
  5
B0C1
330
19
100
AcDbEntity
  8
1
 62
     0
100
AcDbLine
 10
492.4472457432445
 20
19.54412873886215
 30
0.0
 11
493.0544085316434
 21
19.54412873886215
 31
0.0
  0
LINE
  5
B0C2
330
19
100
AcDbEntity
  8
1
 62
     0
100
AcDbLine
 10
490.9294989735506
 20
19.54412873886215
 30
0.0
 11
490.3224429859703
 21
19.54412873886215
 31
0.0
  0
LINE
  5
B0C3
330
19
100
AcDbEntity
  8
1
 62
     0
100
AcDbLine
 10
495.1793714901459
 20
17.52040630379488
 30
0.0
 11
495.1793714901459
 21
18.12752570433307
 31
0.0
  0
LINE
  5
B0C4
330
19
100
AcDbEntity
  8
1
 62
     0
100
AcDbLine
 10
495.3817590863122
 20
15.90143236073058
 30
0.0
 11
495.3817590863122
 21
15.29431629770866
 31
0.0
  0
LINE
  5
B0C5
330
19
100
AcDbEntity
  8
1
 62
     0
100
AcDbLine
 10
490.1200553898542
 20
15.29431629770866
 30
0.0
 11
490.1200553898542
 21
15.90143236073058
 31
0.0
  0
LINE
  5
B0C6
330
19
100
AcDbEntity
  8
1
 62
     0
100
AcDbLine
 10
488.9057832135155
 20
16.5085484237525
 30
0.0
 11
490.1200553898542
 21
15.09194205170721
 31
0.0
  0
LINE
  5
B0C7
330
19
100
AcDbEntity
  8
1
 62
     0
100
AcDbLine
 10
488.9057832135155
 20
17.72278054979639
 30
0.0
 11
488.9057832135155
 21
19.54412873886215
 31
0.0
  0
LINE
  5
B0C8
330
19
100
AcDbEntity
  8
1
 62
     0
100
AcDbLine
 10
488.2987272259355
 20
17.72278054979639
 30
0.0
 11
488.2987272259355
 21
19.54412873886215
 31
0.0
  0
LINE
  5
B0C9
330
19
100
AcDbEntity
  8
1
 62
     0
100
AcDbLine
 10
487.0844550495971
 20
17.72278054979639
 30
0.0
 11
488.2987272259355
 21
17.72278054979639
 31
0.0
  0
LINE
  5
B0CA
330
19
100
AcDbEntity
  8
1
 62
     0
100
AcDbLine
 10
487.0844550495971
 20
17.11566448677448
 30
0.0
 11
488.2987272259355
 21
17.11566448677448
 31
0.0
  0
LINE
  5
B0CB
330
19
100
AcDbEntity
  8
1
 62
     0
100
AcDbLine
 10
488.2987272259355
 20
17.11566448677448
 30
0.0
 11
487.0844550495971
 21
14.48482598868523
 31
0.0
  0
LINE
  5
B0CC
330
19
100
AcDbEntity
  8
1
 62
     0
100
AcDbLine
 10
488.9057832135155
 20
11.44924567352561
 30
0.0
 11
488.2987272259355
 21
11.44924567352561
 31
0.0
  0
LINE
  5
B0CD
330
19
100
AcDbEntity
  8
1
 62
     0
100
AcDbLine
 10
488.2987272259355
 20
19.54412873886215
 30
0.0
 11
488.9057832135155
 21
19.54412873886215
 31
0.0
  0
LINE
  5
B0CE
330
19
100
AcDbEntity
  8
1
 62
     0
100
AcDbLine
 10
487.0844550495971
 20
17.72278054979639
 30
0.0
 11
487.0844550495971
 21
17.11566448677448
 31
0.0
  0
LINE
  5
B0CF
330
19
100
AcDbEntity
  8
1
 62
     0
100
AcDbLine
 10
430.420253567194
 20
21.97259299094978
 30
0.0
 11
430.420253567194
 21
19.94887055588268
 31
0.0
  0
LINE
  5
B0D0
330
19
100
AcDbEntity
  8
1
 62
     0
100
AcDbLine
 10
435.9854852574171
 20
18.93701267584023
 30
0.0
 11
438.0092277176815
 21
18.93701267584023
 31
0.0
  0
LINE
  5
B0D1
330
19
100
AcDbEntity
  8
1
 62
     0
100
AcDbLine
 10
430.7238149362212
 20
10.84212961050369
 30
0.0
 11
430.7238149362212
 21
12.86585204562098
 31
0.0
  0
LINE
  5
B0D2
330
19
100
AcDbEntity
  8
1
 62
     0
100
AcDbLine
 10
439.0210855976742
 20
15.80024523770484
 30
0.0
 11
439.0210855976742
 21
17.83869617647443
 31
0.0
  0
LINE
  5
B0D3
330
19
100
AcDbEntity
  8
1
 62
     0
100
AcDbLine
 10
457.3357212360953
 20
21.97259299094978
 30
0.0
 11
457.3357212360953
 21
19.94887055588268
 31
0.0
  0
LINE
  5
B0D4
330
19
100
AcDbEntity
  8
1
 62
     0
100
AcDbLine
 10
442.1578263355796
 20
15.90143236073058
 30
0.0
 11
442.1578263355796
 21
13.87770992566337
 31
0.0
  0
LINE
  5
B0D5
330
19
100
AcDbEntity
  8
1
 62
     0
100
AcDbLine
 10
449.9087372631699
 20
10.84212961050369
 30
0.0
 11
451.9324797234347
 21
10.84212961050369
 31
0.0
  0
LINE
  5
B0D6
330
19
100
AcDbEntity
  8
1
 62
     0
100
AcDbLine
 10
458.1452182202014
 20
21.97259299094978
 30
0.0
 11
458.1452182202014
 21
19.94887055588268
 31
0.0
  0
LINE
  5
B0D7
330
19
100
AcDbEntity
  8
1
 62
     0
100
AcDbLine
 10
469.6804033924708
 20
21.97259299094978
 30
0.0
 11
469.6804033924708
 21
19.94887055588268
 31
0.0
  0
LINE
  5
B0D8
330
19
100
AcDbEntity
  8
1
 62
     0
100
AcDbLine
 10
458.1452182202014
 20
21.97259299094978
 30
0.0
 11
469.6804033924708
 21
21.97259299094978
 31
0.0
  0
LINE
  5
B0D9
330
19
100
AcDbEntity
  8
1
 62
     0
100
AcDbLine
 10
458.1452182202014
 20
19.94887055588268
 30
0.0
 11
462.9009529263186
 21
19.94887055588268
 31
0.0
  0
LINE
  5
B0DA
330
19
100
AcDbEntity
  8
1
 62
     0
100
AcDbLine
 10
464.9246686863533
 20
19.94887055588268
 30
0.0
 11
469.6804033924708
 21
19.94887055588268
 31
0.0
  0
LINE
  5
B0DB
330
19
100
AcDbEntity
  8
1
 62
     0
100
AcDbLine
 10
456.9310795449116
 20
10.84212961050369
 30
0.0
 11
470.894675568859
 21
10.84212961050369
 31
0.0
  0
LINE
  5
B0DC
330
19
100
AcDbEntity
  8
1
 62
     0
100
AcDbLine
 10
456.9310795449116
 20
12.86584870810478
 30
0.0
 11
462.9009529263186
 21
12.86584870810478
 31
0.0
  0
LINE
  5
B0DD
330
19
100
AcDbEntity
  8
1
 62
     0
100
AcDbLine
 10
462.9009529263186
 20
19.94887055588268
 30
0.0
 11
462.9009529263186
 21
12.86584870810478
 31
0.0
  0
LINE
  5
B0DE
330
19
100
AcDbEntity
  8
1
 62
     0
100
AcDbLine
 10
464.9246686863533
 20
19.94887055588268
 30
0.0
 11
464.9246686863533
 21
12.86584870810478
 31
0.0
  0
LINE
  5
B0DF
330
19
100
AcDbEntity
  8
1
 62
     0
100
AcDbLine
 10
464.9246686863533
 20
12.86584870810478
 30
0.0
 11
470.894675568859
 21
12.86584870810478
 31
0.0
  0
LINE
  5
B0E0
330
19
100
AcDbEntity
  8
1
 62
     0
100
AcDbLine
 10
470.894675568859
 20
10.84212961050369
 30
0.0
 11
470.894675568859
 21
12.86584870810478
 31
0.0
  0
LINE
  5
B0E1
330
19
100
AcDbEntity
  8
1
 62
     0
100
AcDbLine
 10
456.9310795449116
 20
10.84212961050369
 30
0.0
 11
456.9310795449116
 21
12.86584870810478
 31
0.0
  0
LINE
  5
B0E2
330
19
100
AcDbEntity
  8
1
 62
     0
100
AcDbLine
 10
478.4283001828038
 20
21.97259299094978
 30
0.0
 11
480.7651026119907
 21
21.97259299094978
 31
0.0
  0
LINE
  5
B0E3
330
19
100
AcDbEntity
  8
1
 62
     0
100
AcDbLine
 10
471.9053319393646
 20
13.08845837621155
 30
0.0
 11
478.4283001828038
 21
21.97259299094978
 31
0.0
  0
ARC
  5
B0E4
330
19
100
AcDbEntity
  8
1
 62
     0
100
AcDbCircle
 10
473.2023213681004
 20
12.33968434600305
 30
0.0
 40
1.49755337958501
100
AcDbArc
 50
150.0014301824
 51
270.0
  0
LINE
  5
B0E5
330
19
100
AcDbEntity
  8
1
 62
     0
100
AcDbLine
 10
455.7242033268532
 20
21.97257296580259
 30
0.0
 11
457.3357212360953
 21
21.97259299094978
 31
0.0
  0
ARC
  5
B0E6
330
19
100
AcDbEntity
  8
1
 62
     0
100
AcDbCircle
 10
458.3618370285541
 20
8.620558615121154
 30
0.0
 40
13.76130354731847
100
AcDbArc
 50
107.6422910873
 51
133.1299811641
  0
ARC
  5
B0E7
330
19
100
AcDbEntity
  8
1
 62
     0
100
AcDbCircle
 10
455.7244970291801
 20
16.91327021557563
 30
0.0
 40
5.059302333018614
100
AcDbArc
 50
90.0033261309
 51
107.6423083745
  0
LINE
  5
B0E8
330
19
100
AcDbEntity
  8
1
 62
     0
100
AcDbLine
 10
457.3357212360953
 20
19.94887055588268
 30
0.0
 11
455.7244970291801
 21
19.94890393114477
 31
0.0
  0
ARC
  5
B0E9
330
19
100
AcDbEntity
  8
1
 62
     0
100
AcDbCircle
 10
455.7246572304584
 20
16.91331694095268
 30
0.0
 40
3.03558135810534
100
AcDbArc
 50
90.00302375
 51
107.641283542
  0
LINE
  5
B0EA
330
19
100
AcDbEntity
  8
1
 62
     0
100
AcDbLine
 10
443.5667430470179
 20
15.90143903576299
 30
0.0
 11
442.1578263355796
 21
15.90143236073058
 31
0.0
  0
ARC
  5
B0EB
330
19
100
AcDbEntity
  8
1
 62
     0
100
AcDbCircle
 10
440.9293763474145
 20
27.22974430149205
 30
0.0
 40
11.73758111220123
100
AcDbArc
 50
287.6429221169
 51
313.1300710674
  0
ARC
  5
B0EC
330
19
100
AcDbEntity
  8
1
 62
     0
100
AcDbCircle
 10
443.5667430470179
 20
18.93702602595513
 30
0.0
 40
3.03558135810534
100
AcDbArc
 50
270.0
 51
287.6443177942
  0
LINE
  5
B0ED
330
19
100
AcDbEntity
  8
1
 62
     0
100
AcDbLine
 10
442.1578263355796
 20
13.87770992566337
 30
0.0
 11
443.5667163467882
 21
13.87772327572818
 31
0.0
  0
ARC
  5
B0EE
330
19
100
AcDbEntity
  8
1
 62
     0
100
AcDbCircle
 10
443.5667430470179
 20
18.93702602595513
 30
0.0
 40
5.059302333018614
100
AcDbArc
 50
269.9996976245
 51
287.6428732256
  0
LINE
  5
B0EF
330
19
100
AcDbEntity
  8
1
 62
     0
100
AcDbLine
 10
480.7651026119907
 20
21.97259299094978
 30
0.0
 11
474.2012296459826
 21
13.01762939261826
 31
0.0
  0
ARC
  5
B0F0
330
19
100
AcDbEntity
  8
1
 62
     0
100
AcDbCircle
 10
474.2888597370972
 20
12.96703583108044
 30
0.0
 40
0.101186047433295
100
AcDbArc
 50
149.9998505216
 51
270.0
  0
LINE
  5
B0F1
330
19
100
AcDbEntity
  8
1
 62
     0
100
AcDbLine
 10
430.420253567194
 20
21.97259299094978
 30
0.0
 11
444.2032226666407
 21
21.97259299094978
 31
0.0
  0
ARC
  5
B0F2
330
19
100
AcDbEntity
  8
1
 62
     0
100
AcDbCircle
 10
444.2032226666407
 20
21.56785117397934
 30
0.0
 40
0.4047441897831751
100
AcDbArc
 50
1.1075199575
 51
90.0
  0
LINE
  5
B0F3
330
19
100
AcDbEntity
  8
1
 62
     0
100
AcDbLine
 10
435.9854852574171
 20
16.10380326921577
 30
0.0
 11
435.9854852574171
 21
18.93701267584023
 31
0.0
  0
LINE
  5
B0F4
330
19
100
AcDbEntity
  8
1
 62
     0
100
AcDbLine
 10
430.7238149362212
 20
12.86585204562098
 30
0.0
 11
432.7475507214034
 21
12.86585204562098
 31
0.0
  0
ARC
  5
B0F5
330
19
100
AcDbEntity
  8
1
 62
     0
100
AcDbCircle
 10
432.7475507214034
 20
16.10380326921577
 30
0.0
 40
3.237953518165409
100
AcDbArc
 50
270.0
 51
0.0
  0
LINE
  5
B0F6
330
19
100
AcDbEntity
  8
1
 62
     0
100
AcDbLine
 10
438.0092277176815
 20
16.10380326921577
 30
0.0
 11
438.0092277176815
 21
18.93701267584023
 31
0.0
  0
LINE
  5
B0F7
330
19
100
AcDbEntity
  8
1
 62
     0
100
AcDbLine
 10
430.7238149362212
 20
10.84212961050369
 30
0.0
 11
432.7475507214034
 21
10.84212961050369
 31
0.0
  0
ARC
  5
B0F8
330
19
100
AcDbEntity
  8
1
 62
     0
100
AcDbCircle
 10
432.7475507214034
 20
16.10380326921577
 30
0.0
 40
5.261674910286959
100
AcDbArc
 50
270.0
 51
0.0
  0
ARC
  5
B0F9
330
19
100
AcDbEntity
  8
1
 62
     0
100
AcDbCircle
 10
438.9369532341519
 20
21.87081178823806
 30
0.0
 40
6.071162716160685
100
AcDbArc
 50
270.7940136674
 51
334.44372875
  0
ARC
  5
B0FA
330
19
100
AcDbEntity
  8
1
 62
     0
100
AcDbCircle
 10
438.9850937138225
 20
20.87451345593527
 30
0.0
 40
5.666417561673989
100
AcDbArc
 50
343.3581504446
 51
7.108071875499999
  0
LINE
  5
B0FB
330
19
100
AcDbEntity
  8
1
 62
     0
100
AcDbLine
 10
430.420253567194
 20
19.94887055588268
 30
0.0
 11
442.3251298550546
 21
19.94887055588268
 31
0.0
  0
ARC
  5
B0FC
330
19
100
AcDbEntity
  8
1
 62
     0
100
AcDbCircle
 10
438.9369532341519
 20
21.87081178823806
 30
0.0
 40
4.047429016919969
100
AcDbArc
 50
270.7937643299
 51
329.157865534
  0
ARC
  5
B0FD
330
19
100
AcDbEntity
  8
1
 62
     0
100
AcDbCircle
 10
442.3251298550546
 20
19.84769010788935
 30
0.0
 40
0.101186047433295
100
AcDbArc
 50
329.1503473407
 51
90.0
  0
LINE
  5
B0FE
330
19
100
AcDbEntity
  8
1
 62
     0
100
AcDbLine
 10
478.7871510128822
 20
17.3180387328259
 30
0.0
 11
478.7871510128822
 21
15.28346266213074
 31
0.0
  0
LINE
  5
B0FF
330
19
100
AcDbEntity
  8
1
 62
     0
100
AcDbLine
 10
449.9087639633998
 20
10.84212961050369
 30
0.0
 11
449.9087105629405
 21
16.80162996016773
 31
0.0
  0
ARC
  5
B100
330
19
100
AcDbEntity
  8
1
 62
     0
100
AcDbCircle
 10
440.9293763474145
 20
27.22974430149205
 30
0.0
 40
13.76130354731847
100
AcDbArc
 50
287.6425962693
 51
310.7307471738
  0
LINE
  5
B101
330
19
100
AcDbEntity
  8
1
 62
     0
100
AcDbLine
 10
451.9324797234347
 20
10.84212961050369
 30
0.0
 11
451.9324797234347
 21
18.44060569845251
 31
0.0
  0
ARC
  5
B102
330
19
100
AcDbEntity
  8
1
 62
     0
100
AcDbCircle
 10
458.3618370285541
 20
8.620558615121154
 30
0.0
 40
11.73757944346812
100
AcDbArc
 50
107.6412087103
 51
123.2134821826
  0
LINE
  5
B103
330
19
100
AcDbEntity
  8
1
 62
     0
100
AcDbLine
 10
473.2023213681004
 20
10.84212961050369
 30
0.0
 11
485.3115076672165
 21
10.84213294806992
 31
0.0
  0
ARC
  5
B104
330
19
100
AcDbEntity
  8
1
 62
     0
100
AcDbCircle
 10
485.3115076672165
 20
11.65161991957708
 30
0.0
 40
0.809488379516355
100
AcDbArc
 50
270.0
 51
15.820406099
  0
ARC
  5
B105
330
19
100
AcDbEntity
  8
1
 62
     0
100
AcDbCircle
 10
478.6721799061425
 20
10.85341712453945
 30
0.0
 40
7.487767002314608
100
AcDbArc
 50
7.820697065900001
 51
26.5243235141
  0
ARC
  5
B106
330
19
100
AcDbEntity
  8
1
 62
     0
100
AcDbCircle
 10
479.2779542835966
 20
9.846365282445191
 30
0.0
 40
7.487767002314608
100
AcDbArc
 50
35.5261796315
 51
93.75827629680001
  0
LINE
  5
B107
330
19
100
AcDbEntity
  8
1
 62
     0
100
AcDbLine
 10
474.2888597370972
 20
12.86584870810478
 30
0.0
 11
483.1780540417157
 21
12.86582868295741
 31
0.0
  0
ARC
  5
B108
330
19
100
AcDbEntity
  8
1
 62
     0
100
AcDbCircle
 10
478.9547749348137
 20
9.821994665250514
 30
0.0
 40
5.464054579796009
100
AcDbArc
 50
37.2006645274
 51
91.75797592620002
  0
ARC
  5
B109
330
19
100
AcDbEntity
  8
1
 62
     0
100
AcDbCircle
 10
483.1780540417157
 20
13.02772207219939
 30
0.0
 40
0.16189767851301
100
AcDbArc
 50
270.0
 51
37.1987239596
  0
LINE
  5
B10A
330
19
100
AcDbEntity
  8
1
 62
     0
100
AcDbLine
 10
493.0544085316434
 20
11.44924567352561
 30
0.0
 11
493.0544085316434
 21
15.29431629770866
 31
0.0
  0
LINE
  5
B10B
330
19
100
AcDbEntity
  8
1
 62
     0
100
AcDbLine
 10
492.4472457432445
 20
11.44924567352561
 30
0.0
 11
492.4472457432445
 21
15.29431629770866
 31
0.0
  0
LINE
  5
B10C
330
19
100
AcDbEntity
  8
1
 62
     0
100
AcDbLine
 10
488.9057832135155
 20
11.44924567352561
 30
0.0
 11
488.9057832135155
 21
15.57566976659794
 31
0.0
  0
LINE
  5
B10D
330
19
100
AcDbEntity
  8
1
 62
     0
100
AcDbLine
 10
488.2987272259355
 20
11.44924567352561
 30
0.0
 11
488.2987272259355
 21
15.66690104860734
 31
0.0
  0
LINE
  5
B10E
330
19
100
AcDbEntity
  8
1
 62
     0
100
AcDbLine
 10
490.7317038136447
 20
17.52040630379488
 30
0.0
 11
492.4472457432445
 21
17.52040630379488
 31
0.0
  0
LINE
  5
B10F
330
19
100
AcDbEntity
  8
1
 62
     0
100
AcDbLine
 10
490.8575152058471
 20
18.12752570433307
 30
0.0
 11
492.4472457432445
 21
18.12752570433307
 31
0.0
  0
ARC
  5
B110
330
19
100
AcDbEntity
  8
1
 62
     0
100
AcDbCircle
 10
484.2623495930167
 20
19.17764498610253
 30
0.0
 40
6.678282116748825
100
AcDbArc
 50
336.442397035
 51
345.6316538433
  0
ARC
  5
B111
330
19
100
AcDbEntity
  8
1
 62
     0
100
AcDbCircle
 10
484.2623495930167
 20
19.17764498610253
 30
0.0
 40
6.678282116748825
100
AcDbArc
 50
350.9529899564
 51
3.1458236822
  0
LINE
  5
B112
330
19
100
AcDbEntity
  8
1
 62
     0
100
AcDbLine
 10
488.9057832135155
 20
17.11566448677448
 30
0.0
 11
489.9725634266753
 21
17.11573123729872
 31
0.0
  0
LINE
  5
B113
330
19
100
AcDbEntity
  8
1
 62
     0
100
AcDbLine
 10
488.9057832135155
 20
17.72278054979639
 30
0.0
 11
490.1565278774905
 21
17.72250687261672
 31
0.0
  0
ARC
  5
B114
330
19
100
AcDbEntity
  8
1
 62
     0
100
AcDbCircle
 10
484.2623495930167
 20
19.17764498610253
 30
0.0
 40
6.071162716160685
100
AcDbArc
 50
333.9192093946
 51
340.1451510099
  0
ARC
  5
B115
330
19
100
AcDbEntity
  8
1
 62
     0
100
AcDbCircle
 10
484.2623495930167
 20
19.17764498610253
 30
0.0
 40
6.071162716160685
100
AcDbArc
 50
346.1350283918
 51
3.460743738799999
  0
ARC
  5
B116
330
19
100
AcDbEntity
  8
1
 62
     0
100
AcDbCircle
 10
486.2816865185288
 20
15.55471677635657
 30
0.0
 40
5.059302333018614
100
AcDbArc
 50
319.3489393194
 51
357.0496979806
  0
LINE
  5
B117
330
19
100
AcDbEntity
  8
1
 62
     0
100
AcDbLine
 10
490.1200553898542
 20
11.44924567352561
 30
0.0
 11
490.1201087902635
 21
12.2588527960165
 31
0.0
  0
LINE
  5
B118
330
19
100
AcDbEntity
  8
1
 62
     0
100
AcDbLine
 10
490.1200553898542
 20
11.44924567352561
 30
0.0
 11
490.1871797192497
 21
11.44924567352561
 31
0.0
  0
ARC
  5
B119
330
19
100
AcDbEntity
  8
1
 62
     0
100
AcDbCircle
 10
486.2816865185288
 20
15.55471677635657
 30
0.0
 40
5.666415058524329
100
AcDbArc
 50
313.5700210064
 51
357.3674058712001
  0
LINE
  5
B11A
330
19
100
AcDbEntity
  8
1
 62
     0
100
AcDbLine
 10
495.3817590863122
 20
11.44924567352561
 30
0.0
 11
495.3145279560976
 21
11.44924567352561
 31
0.0
  0
LINE
  5
B11B
330
19
100
AcDbEntity
  8
1
 62
     0
100
AcDbLine
 10
495.3817590863122
 20
11.44924567352561
 30
0.0
 11
495.3815988850339
 21
12.2588527960165
 31
0.0
  0
ARC
  5
B11C
330
19
100
AcDbEntity
  8
1
 62
     0
100
AcDbCircle
 10
499.220074557178
 20
15.55471677635657
 30
0.0
 40
5.666415058524329
100
AcDbArc
 50
182.6325445276
 51
226.4295877768999
  0
ARC
  5
B11D
330
19
100
AcDbEntity
  8
1
 62
     0
100
AcDbCircle
 10
499.220074557178
 20
15.55471677635657
 30
0.0
 40
5.059302333018614
100
AcDbArc
 50
182.9502708933
 51
220.6506667157
  0
LINE
  5
B11E
330
19
100
AcDbEntity
  8
1
 62
     0
100
AcDbLine
 10
499.0243620136897
 20
12.58130790158103
 30
0.0
 11
499.0243620136897
 21
15.49669054371011
 31
0.0
  0
LINE
  5
B11F
330
19
100
AcDbEntity
  8
1
 62
     0
100
AcDbLine
 10
498.4173060261595
 20
12.43087891518419
 30
0.0
 11
498.4173060261595
 21
15.49669054371011
 31
0.0
  0
LINE
  5
B120
330
19
100
AcDbEntity
  8
1
 62
     0
100
AcDbLine
 10
503.7462942532415
 20
18.12752570433307
 30
0.0
 11
504.0837315144408
 21
18.12752570433307
 31
0.0
  0
LINE
  5
B121
330
19
100
AcDbEntity
  8
1
 62
     0
100
AcDbLine
 10
503.7462942532415
 20
18.12752570433307
 30
0.0
 11
503.9901205761709
 21
18.41265391551045
 31
0.0
  0
LINE
  5
B122
330
19
100
AcDbEntity
  8
1
 62
     0
100
AcDbLine
 10
501.4249779461378
 20
19.54412873886215
 30
0.0
 11
502.033048541697
 21
19.54412873886215
 31
0.0
  0
LINE
  5
B123
330
19
100
AcDbEntity
  8
1
 62
     0
100
AcDbLine
 10
502.2724960301033
 20
19.08272907504297
 30
0.0
 11
503.3894726391717
 21
18.12752570433307
 31
0.0
  0
LINE
  5
B124
330
19
100
AcDbEntity
  8
1
 62
     0
100
AcDbLine
 10
502.0403109989787
 20
17.52040630379488
 30
0.0
 11
504.0837315144408
 21
17.52040630379488
 31
0.0
  0
ARC
  5
B125
330
19
100
AcDbEntity
  8
1
 62
     0
100
AcDbCircle
 10
518.1946860005187
 20
18.58998670150836
 30
0.0
 40
16.18976613062308
100
AcDbArc
 50
176.6213243932
 51
181.6368833429
  0
ARC
  5
B126
330
19
100
AcDbEntity
  8
1
 62
     0
100
AcDbCircle
 10
518.1946860005187
 20
18.58998670150836
 30
0.0
 40
16.18976613062308
100
AcDbArc
 50
183.7880220255
 51
198.4016949587
  0
LINE
  5
B127
330
19
100
AcDbEntity
  8
1
 62
     0
100
AcDbLine
 10
502.0115815724086
 20
18.12752570433307
 30
0.0
 11
503.3894726391717
 21
18.12752570433307
 31
0.0
  0
ARC
  5
B128
330
19
100
AcDbEntity
  8
1
 62
     0
100
AcDbCircle
 10
518.1946860005187
 20
18.58998670150836
 30
0.0
 40
16.79688386242812
100
AcDbArc
 50
183.6509176559
 51
198.4628246599
  0
ARC
  5
B129
330
19
100
AcDbEntity
  8
1
 62
     0
100
AcDbCircle
 10
518.1946860005187
 20
18.58998670150836
 30
0.0
 40
16.79688386242812
100
AcDbArc
 50
176.7435667674
 51
181.5776964377
  0
LINE
  5
B12A
330
19
100
AcDbEntity
  8
1
 62
     0
100
AcDbLine
 10
495.7864274777259
 20
17.52040630379488
 30
0.0
 11
501.431920000913
 21
17.52040630379488
 31
0.0
  0
LINE
  5
B12B
330
19
100
AcDbEntity
  8
1
 62
     0
100
AcDbLine
 10
495.7864274777259
 20
18.12752570433307
 30
0.0
 11
501.4041517819127
 21
18.12752570433307
 31
0.0
  0
ARC
  5
B12C
330
19
100
AcDbEntity
  8
1
 62
     0
100
AcDbCircle
 10
499.9423152531353
 20
25.34603777063413
 30
0.0
 40
10.11860466603723
100
AcDbArc
 50
296.697514196
 51
325.0131756188
  0
LINE
  5
B12D
330
19
100
AcDbEntity
  8
1
 62
     0
100
AcDbLine
 10
504.4883999058544
 20
16.30617751526731
 30
0.0
 11
504.4886669079516
 21
15.63149656935937
 31
0.0
  0
LINE
  5
B12E
330
19
100
AcDbEntity
  8
1
 62
     0
100
AcDbLine
 10
505.7026720821931
 20
15.90143236073058
 30
0.0
 11
505.7026186817838
 21
16.29837437870898
 31
0.0
  0
LINE
  5
B12F
330
19
100
AcDbEntity
  8
1
 62
     0
100
AcDbLine
 10
511.5714851666407
 20
15.90143236073058
 30
0.0
 11
511.5714317661813
 21
16.29841776656977
 31
0.0
  0
LINE
  5
B130
330
19
100
AcDbEntity
  8
1
 62
     0
100
AcDbLine
 10
506.0200841854584
 20
16.50852506108904
 30
0.0
 11
511.2539128620972
 21
16.50857178641595
 31
0.0
  0
LINE
  5
B131
330
19
100
AcDbEntity
  8
1
 62
     0
100
AcDbLine
 10
512.7857039425696
 20
16.30617751526731
 30
0.0
 11
512.7855437412915
 21
15.63147988172821
 31
0.0
  0
ARC
  5
B132
330
19
100
AcDbEntity
  8
1
 62
     0
100
AcDbCircle
 10
517.331788595289
 20
25.34603777063413
 30
0.0
 40
10.11860466603723
100
AcDbArc
 50
214.98717114
 51
243.3025112761
  0
ARC
  5
B133
330
19
100
AcDbEntity
  8
1
 62
     0
100
AcDbCircle
 10
517.331788595289
 20
25.34603777063413
 30
0.0
 40
10.72572406657537
100
AcDbArc
 50
215.8412213444
 51
235.4826950644
  0
ARC
  5
B134
330
19
100
AcDbEntity
  8
1
 62
     0
100
AcDbCircle
 10
517.331788595289
 20
25.34603777063413
 30
0.0
 40
10.72572406657537
100
AcDbArc
 50
237.5165557651
 51
244.9212199596
  0
ARC
  5
B135
330
19
100
AcDbEntity
  8
1
 62
     0
100
AcDbCircle
 10
499.9423152531353
 20
25.34603777063413
 30
0.0
 40
10.72572406657537
100
AcDbArc
 50
295.0793345585
 51
302.4836848647
  0
ARC
  5
B136
330
19
100
AcDbEntity
  8
1
 62
     0
100
AcDbCircle
 10
499.9423152531353
 20
25.34603777063413
 30
0.0
 40
10.72572406657537
100
AcDbArc
 50
304.5175399770001
 51
324.1589456867
  0
LINE
  5
B137
330
19
100
AcDbEntity
  8
1
 62
     0
100
AcDbLine
 10
504.4883999058544
 20
11.44701954351095
 30
0.0
 11
511.55391642804
 21
12.31082141838445
 31
0.0
  0
LINE
  5
B138
330
19
100
AcDbEntity
  8
1
 62
     0
100
AcDbLine
 10
512.2276695416408
 20
11.36783673153402
 30
0.0
 11
512.721623437161
 21
11.72076345238227
 31
0.0
  0
LINE
  5
B139
330
19
100
AcDbEntity
  8
1
 62
     0
100
AcDbLine
 10
511.55391642804
 20
12.31082141838445
 30
0.0
 11
512.2276695416408
 21
11.36783673153402
 31
0.0
  0
LINE
  5
B13A
330
19
100
AcDbEntity
  8
1
 62
     0
100
AcDbLine
 10
510.2898750592187
 20
14.08008417166482
 30
0.0
 11
511.1520248585666
 21
12.87332810459023
 31
0.0
  0
LINE
  5
B13B
330
19
100
AcDbEntity
  8
1
 62
     0
100
AcDbLine
 10
507.3561093220329
 20
14.08008417166482
 30
0.0
 11
510.2898750592187
 21
14.08008417166482
 31
0.0
  0
LINE
  5
B13C
330
19
100
AcDbEntity
  8
1
 62
     0
100
AcDbLine
 10
506.4548170139775
 20
12.29905330056394
 30
0.0
 11
507.3561093220329
 21
14.08008417166482
 31
0.0
  0
LINE
  5
B13D
330
19
100
AcDbEntity
  8
1
 62
     0
100
AcDbLine
 10
504.4147607251092
 20
12.04964997114123
 30
0.0
 11
505.7294790936238
 21
12.2103785637245
 31
0.0
  0
LINE
  5
B13E
330
19
100
AcDbEntity
  8
1
 62
     0
100
AcDbLine
 10
506.4548170139775
 20
12.29905330056394
 30
0.0
 11
511.1520248585666
 21
12.87332810459023
 31
0.0
  0
LINE
  5
B13F
330
19
100
AcDbEntity
  8
1
 62
     0
100
AcDbLine
 10
505.7294790936238
 20
12.2103785637245
 30
0.0
 11
506.6756811558547
 21
14.08008417166482
 31
0.0
  0
LINE
  5
B140
330
19
100
AcDbEntity
  8
1
 62
     0
100
AcDbLine
 10
515.5112614376618
 20
15.46981010672257
 30
0.0
 11
517.0355230587556
 21
14.25045154027404
 31
0.0
  0
LINE
  5
B141
330
19
100
AcDbEntity
  8
1
 62
     0
100
AcDbLine
 10
515.0974081738272
 20
15.02354946230011
 30
0.0
 11
517.0355230587556
 21
13.47296810864284
 31
0.0
  0
LINE
  5
B142
330
19
100
AcDbEntity
  8
1
 62
     0
100
AcDbLine
 10
515.0117538983113
 20
11.44924567352561
 30
0.0
 11
515.0117538983113
 21
14.94361904444136
 31
0.0
  0
LINE
  5
B143
330
19
100
AcDbEntity
  8
1
 62
     0
100
AcDbLine
 10
514.4046979107813
 20
11.44924567352561
 30
0.0
 11
514.4046979107813
 21
14.46916297764298
 31
0.0
  0
ARC
  5
B144
330
19
100
AcDbEntity
  8
1
 62
     0
100
AcDbCircle
 10
511.601870006253
 20
18.68113788287852
 30
0.0
 40
5.059302333018614
100
AcDbArc
 50
288.3003044939
 51
303.641552214
  0
ARC
  5
B145
330
19
100
AcDbEntity
  8
1
 62
     0
100
AcDbCircle
 10
511.601870006253
 20
18.68113788287852
 30
0.0
 40
5.059302333018614
100
AcDbArc
 50
312.3756440315
 51
313.7015706664
  0
ARC
  5
B146
330
19
100
AcDbEntity
  8
1
 62
     0
100
AcDbCircle
 10
511.601870006253
 20
18.68113788287852
 30
0.0
 40
5.059302333018614
100
AcDbArc
 50
320.5990305764
 51
353.7177977889
  0
LINE
  5
B147
330
19
100
AcDbEntity
  8
1
 62
     0
100
AcDbLine
 10
513.1904791348022
 20
13.87770992566337
 30
0.0
 11
513.1903723339835
 21
14.52195930653207
 31
0.0
  0
ARC
  5
B148
330
19
100
AcDbEntity
  8
1
 62
     0
100
AcDbCircle
 10
511.601870006253
 20
18.68113788287852
 30
0.0
 40
4.452187938779789
100
AcDbArc
 50
290.9032036033
 51
344.8879004347
  0
LINE
  5
B149
330
19
100
AcDbEntity
  8
1
 62
     0
100
AcDbLine
 10
513.1904791348022
 20
17.52040630379488
 30
0.0
 11
515.9001233044362
 21
17.52040630379488
 31
0.0
  0
LINE
  5
B14A
330
19
100
AcDbEntity
  8
1
 62
     0
100
AcDbLine
 10
512.1225241123852
 20
31.32528960105245
 30
0.0
 11
511.3859187031428
 21
30.89999529693634
 31
0.0
  0
LINE
  5
B14B
330
19
100
AcDbEntity
  8
1
 62
     0
100
AcDbLine
 10
514.5180136044286
 20
31.32528960105245
 30
0.0
 11
515.2546190136709
 21
30.89999529693634
 31
0.0
  0
LINE
  5
B14C
330
19
100
AcDbEntity
  8
1
 62
     0
100
AcDbLine
 10
514.5180136044286
 20
22.11736487021406
 30
0.0
 11
515.2546190136709
 21
22.54265583676411
 31
0.0
  0
LINE
  5
B14D
330
19
100
AcDbEntity
  8
1
 62
     0
100
AcDbLine
 10
512.1225241123852
 20
22.11736487021406
 30
0.0
 11
511.3859187031428
 21
22.54266584936269
 31
0.0
  0
LINE
  5
B14E
330
19
100
AcDbEntity
  8
1
 62
     0
100
AcDbLine
 10
514.0568475674444
 20
23.23416459032293
 30
0.0
 11
519.4588875706183
 21
26.35300951213916
 31
0.0
  0
LINE
  5
B14F
330
19
100
AcDbEntity
  8
1
 62
     0
100
AcDbLine
 10
512.1225241123852
 20
22.11736487021406
 30
0.0
 11
513.320242158202
 21
22.80886694874047
 31
0.0
  0
LINE
  5
B150
330
19
100
AcDbEntity
  8
1
 62
     0
100
AcDbLine
 10
512.5835833485504
 20
23.23417126540531
 30
0.0
 11
511.3859187031428
 21
22.54265583676411
 31
0.0
  0
LINE
  5
B151
330
19
100
AcDbEntity
  8
1
 62
     0
100
AcDbLine
 10
518.6235981831107
 20
26.72131889181784
 30
0.0
 11
513.320242158202
 21
23.65946556947156
 31
0.0
  0
LINE
  5
B152
330
19
100
AcDbEntity
  8
1
 62
     0
100
AcDbLine
 10
513.320242158202
 20
22.80888363637163
 30
0.0
 11
514.5180136044286
 21
22.11736487021406
 31
0.0
  0
LINE
  5
B153
330
19
100
AcDbEntity
  8
1
 62
     0
100
AcDbLine
 10
507.1816501461454
 20
26.35300951213916
 30
0.0
 11
512.5835833485504
 21
23.23417126540531
 31
0.0
  0
LINE
  5
B154
330
19
100
AcDbEntity
  8
1
 62
     0
100
AcDbLine
 10
514.0568475674444
 20
23.23416459032293
 30
0.0
 11
515.2546190136709
 21
22.54265583676411
 31
0.0
  0
LINE
  5
B155
330
19
100
AcDbEntity
  8
1
 62
     0
100
AcDbLine
 10
508.0169929341124
 20
26.72131889181784
 30
0.0
 11
513.320242158202
 21
23.65945889443915
 31
0.0
  0
LINE
  5
B156
330
19
100
AcDbEntity
  8
1
 62
     0
100
AcDbLine
 10
513.320242158202
 20
30.63378084744372
 30
0.0
 11
512.1225241123852
 21
31.32528960105245
 31
0.0
  0
LINE
  5
B157
330
19
100
AcDbEntity
  8
1
 62
     0
100
AcDbLine
 10
519.4588875706183
 20
27.08964829664367
 30
0.0
 11
514.0568475674444
 21
30.20848654337746
 31
0.0
  0
LINE
  5
B158
330
19
100
AcDbEntity
  8
1
 62
     0
100
AcDbLine
 10
512.5835833485504
 20
30.20848654337746
 30
0.0
 11
511.3859187031428
 21
30.89999529693634
 31
0.0
  0
LINE
  5
B159
330
19
100
AcDbEntity
  8
1
 62
     0
100
AcDbLine
 10
518.6235981831107
 20
26.72131889181784
 30
0.0
 11
513.320242158202
 21
29.7831788891464
 31
0.0
  0
LINE
  5
B15A
330
19
100
AcDbEntity
  8
1
 62
     0
100
AcDbLine
 10
514.0568475674444
 20
30.20847986829503
 30
0.0
 11
515.2546190136709
 21
30.89999529693634
 31
0.0
  0
LINE
  5
B15B
330
19
100
AcDbEntity
  8
1
 62
     0
100
AcDbLine
 10
508.0169929341124
 20
26.72131889181784
 30
0.0
 11
513.320242158202
 21
29.78318556422877
 31
0.0
  0
LINE
  5
B15C
330
19
100
AcDbEntity
  8
1
 62
     0
100
AcDbLine
 10
512.5835833485504
 20
30.20848654337746
 30
0.0
 11
507.1816501461454
 21
27.08964829664367
 31
0.0
  0
LINE
  5
B15D
330
19
100
AcDbEntity
  8
1
 62
     0
100
AcDbLine
 10
514.5180136044286
 20
31.32528960105245
 30
0.0
 11
513.320242158202
 21
30.63376749732882
 31
0.0
  0
LINE
  5
B15E
330
19
100
AcDbEntity
  8
1
 62
     0
100
AcDbLine
 10
521.6073467144672
 20
27.08964829664367
 30
0.0
 11
519.4588875706183
 21
27.08964829664367
 31
0.0
  0
LINE
  5
B15F
330
19
100
AcDbEntity
  8
1
 62
     0
100
AcDbLine
 10
521.6073467144672
 20
26.35300951213916
 30
0.0
 11
521.6073467144672
 21
27.08964829664367
 31
0.0
  0
LINE
  5
B160
330
19
100
AcDbEntity
  8
1
 62
     0
100
AcDbLine
 10
519.4588875706183
 20
26.35300951213916
 30
0.0
 11
521.6073467144672
 21
26.35300951213916
 31
0.0
  0
LINE
  5
B161
330
19
100
AcDbEntity
  8
1
 62
     0
100
AcDbLine
 10
505.0330842014775
 20
26.35300951213916
 30
0.0
 11
507.1816501461454
 21
26.35300951213916
 31
0.0
  0
LINE
  5
B162
330
19
100
AcDbEntity
  8
1
 62
     0
100
AcDbLine
 10
505.0330842014775
 20
27.08964829664367
 30
0.0
 11
505.0330842014775
 21
26.35300951213916
 31
0.0
  0
LINE
  5
B163
330
19
100
AcDbEntity
  8
1
 62
     0
100
AcDbLine
 10
507.1816501461454
 20
27.08964829664367
 30
0.0
 11
505.0330842014775
 21
27.08964829664367
 31
0.0
  0
LINE
  5
B164
330
19
100
AcDbEntity
  8
1
 62
     0
100
AcDbLine
 10
512.0081404102993
 20
28.17928389003683
 30
0.0
 11
510.5502555126695
 21
28.17928389003683
 31
0.0
  0
LINE
  5
B165
330
19
100
AcDbEntity
  8
1
 62
     0
100
AcDbLine
 10
510.5502555126695
 20
28.17928389003683
 30
0.0
 11
510.5502555126695
 21
27.94601750040872
 31
0.0
  0
LINE
  5
B166
330
19
100
AcDbEntity
  8
1
 62
     0
100
AcDbLine
 10
510.5502555126695
 20
27.94601750040872
 30
0.0
 11
510.7834551518233
 21
27.94601750040872
 31
0.0
  0
LINE
  5
B167
330
19
100
AcDbEntity
  8
1
 62
     0
100
AcDbLine
 10
510.7834551518233
 20
27.94601750040872
 30
0.0
 11
510.7834551518233
 21
25.49670705889847
 31
0.0
  0
LINE
  5
B168
330
19
100
AcDbEntity
  8
1
 62
     0
100
AcDbLine
 10
510.7834551518233
 20
25.49670705889847
 30
0.0
 11
510.5502555126695
 21
25.49670705889847
 31
0.0
  0
LINE
  5
B169
330
19
100
AcDbEntity
  8
1
 62
     0
100
AcDbLine
 10
510.5502555126695
 20
25.49670705889847
 30
0.0
 11
510.5502555126695
 21
25.26344066922022
 31
0.0
  0
LINE
  5
B16A
330
19
100
AcDbEntity
  8
1
 62
     0
100
AcDbLine
 10
510.5502555126695
 20
25.26344066922022
 30
0.0
 11
512.0081404102993
 21
25.26344066922022
 31
0.0
  0
LINE
  5
B16B
330
19
100
AcDbEntity
  8
1
 62
     0
100
AcDbLine
 10
512.0081404102993
 20
25.26344066922022
 30
0.0
 11
512.0081404102993
 21
25.49670705889847
 31
0.0
  0
LINE
  5
B16C
330
19
100
AcDbEntity
  8
1
 62
     0
100
AcDbLine
 10
512.0081404102993
 20
25.49670705889847
 30
0.0
 11
511.6582074505449
 21
25.49670705889847
 31
0.0
  0
LINE
  5
B16D
330
19
100
AcDbEntity
  8
1
 62
     0
100
AcDbLine
 10
511.6582074505449
 20
25.49670705889847
 30
0.0
 11
511.6582074505449
 21
27.94601750040872
 31
0.0
  0
LINE
  5
B16E
330
19
100
AcDbEntity
  8
1
 62
     0
100
AcDbLine
 10
511.6582074505449
 20
27.94601750040872
 30
0.0
 11
512.0081404102993
 21
27.94601750040872
 31
0.0
  0
LINE
  5
B16F
330
19
100
AcDbEntity
  8
1
 62
     0
100
AcDbLine
 10
512.0081404102993
 20
27.94601750040872
 30
0.0
 11
512.0081404102993
 21
28.17928389003683
 31
0.0
  0
LINE
  5
B170
330
19
100
AcDbEntity
  8
1
 62
     0
100
AcDbLine
 10
516.0902822041443
 20
28.17928389003683
 30
0.0
 11
516.0902822041443
 21
27.94601750040872
 31
0.0
  0
LINE
  5
B171
330
19
100
AcDbEntity
  8
1
 62
     0
100
AcDbLine
 10
516.0902822041443
 20
27.94601750040872
 30
0.0
 11
515.7404560452089
 21
27.94601750040872
 31
0.0
  0
LINE
  5
B172
330
19
100
AcDbEntity
  8
1
 62
     0
100
AcDbLine
 10
515.7404560452089
 20
27.94601750040872
 30
0.0
 11
515.7404560452089
 21
25.49670705889847
 31
0.0
  0
LINE
  5
B173
330
19
100
AcDbEntity
  8
1
 62
     0
100
AcDbLine
 10
515.7404560452089
 20
25.49670705889847
 30
0.0
 11
516.0902822041443
 21
25.49670705889847
 31
0.0
  0
LINE
  5
B174
330
19
100
AcDbEntity
  8
1
 62
     0
100
AcDbLine
 10
516.0902822041443
 20
25.49670705889847
 30
0.0
 11
516.0902822041443
 21
25.26344066922022
 31
0.0
  0
LINE
  5
B175
330
19
100
AcDbEntity
  8
1
 62
     0
100
AcDbLine
 10
516.0902822041443
 20
25.26344066922022
 30
0.0
 11
514.6324507069238
 21
25.26344066922022
 31
0.0
  0
LINE
  5
B176
330
19
100
AcDbEntity
  8
1
 62
     0
100
AcDbLine
 10
514.6324507069238
 20
25.26344066922022
 30
0.0
 11
514.6324507069238
 21
25.49670705889847
 31
0.0
  0
LINE
  5
B177
330
19
100
AcDbEntity
  8
1
 62
     0
100
AcDbLine
 10
514.6324507069238
 20
25.49670705889847
 30
0.0
 11
514.8656503460779
 21
25.49670705889847
 31
0.0
  0
LINE
  5
B178
330
19
100
AcDbEntity
  8
1
 62
     0
100
AcDbLine
 10
513.6118618580658
 20
28.17928389003683
 30
0.0
 11
512.5621697796716
 21
28.17928389003683
 31
0.0
  0
LINE
  5
B179
330
19
100
AcDbEntity
  8
1
 62
     0
100
AcDbLine
 10
512.5621697796716
 20
28.17928389003683
 30
0.0
 11
512.5621697796716
 21
27.94601750040872
 31
0.0
  0
LINE
  5
B17A
330
19
100
AcDbEntity
  8
1
 62
     0
100
AcDbLine
 10
512.5621697796716
 20
27.94601750040872
 30
0.0
 11
512.7954762196443
 21
27.94601750040872
 31
0.0
  0
LINE
  5
B17B
330
19
100
AcDbEntity
  8
1
 62
     0
100
AcDbLine
 10
512.7954762196443
 20
27.94601750040872
 30
0.0
 11
512.7954762196443
 21
25.49670705889847
 31
0.0
  0
LINE
  5
B17C
330
19
100
AcDbEntity
  8
1
 62
     0
100
AcDbLine
 10
512.7954762196443
 20
25.49670705889847
 30
0.0
 11
512.5621697796716
 21
25.49670705889847
 31
0.0
  0
LINE
  5
B17D
330
19
100
AcDbEntity
  8
1
 62
     0
100
AcDbLine
 10
512.5621697796716
 20
25.49670705889847
 30
0.0
 11
512.5621697796716
 21
25.26344066922022
 31
0.0
  0
LINE
  5
B17E
330
19
100
AcDbEntity
  8
1
 62
     0
100
AcDbLine
 10
512.5621697796716
 20
25.26344066922022
 30
0.0
 11
513.6118618580658
 21
25.26344066922022
 31
0.0
  0
LINE
  5
B17F
330
19
100
AcDbEntity
  8
1
 62
     0
100
AcDbLine
 10
513.6118618580658
 20
25.26344066922022
 30
0.0
 11
513.6118618580658
 21
25.49670705889847
 31
0.0
  0
LINE
  5
B180
330
19
100
AcDbEntity
  8
1
 62
     0
100
AcDbLine
 10
513.6118618580658
 20
25.49670705889847
 30
0.0
 11
513.2619288983114
 21
25.49670705889847
 31
0.0
  0
CIRCLE
  5
B181
330
19
100
AcDbEntity
  8
1
 62
     0
100
AcDbCircle
 10
512.2850749943211
 20
25.38002046362502
 30
0.0
 40
0.11663372936061
  0
LINE
  5
B182
330
19
100
AcDbEntity
  8
1
 62
     0
100
AcDbLine
 10
514.1221028820605
 20
25.26344066922022
 30
0.0
 11
513.2619288983114
 21
27.47106080462837
 31
0.0
  0
LINE
  5
B183
330
19
100
AcDbEntity
  8
1
 62
     0
100
AcDbLine
 10
514.1221028820605
 20
25.26344066922022
 30
0.0
 11
514.8656503460779
 21
27.20220303429417
 31
0.0
  0
LINE
  5
B184
330
19
100
AcDbEntity
  8
1
 62
     0
100
AcDbLine
 10
514.8656503460779
 20
28.17928389003683
 30
0.0
 11
514.2438024418372
 21
26.5576599510986
 31
0.0
  0
LINE
  5
B185
330
19
100
AcDbEntity
  8
1
 62
     0
100
AcDbLine
 10
514.8656503460779
 20
25.49670705889847
 30
0.0
 11
514.8656503460779
 21
27.20220303429417
 31
0.0
  0
LINE
  5
B186
330
19
100
AcDbEntity
  8
1
 62
     0
100
AcDbLine
 10
513.2619288983114
 20
25.49670705889847
 30
0.0
 11
513.2619288983114
 21
27.47106080462837
 31
0.0
  0
LINE
  5
B187
330
19
100
AcDbEntity
  8
1
 62
     0
100
AcDbLine
 10
513.6118618580658
 20
28.17928389003683
 30
0.0
 11
514.2438024418372
 21
26.55765327606619
 31
0.0
  0
LINE
  5
B188
330
19
100
AcDbEntity
  8
1
 62
     0
100
AcDbLine
 10
514.8656503460779
 20
28.17928389003683
 30
0.0
 11
516.0902822041443
 21
28.17928389003683
 31
0.0
  0
TEXT
  5
B189
330
19
100
AcDbEntity
  8
1
 62
     0
100
AcDbText
 10
459.359404881592
 20
42.46536639461126
 30
0.0
 40
4.19958
  1
部長
 41
0.9709821428571647
 72
     5
 11
468.0585348815922
 21
42.46536639461126
 31
0.0
100
AcDbText
  0
TEXT
  5
B18A
330
19
100
AcDbEntity
  8
1
 62
     0
100
AcDbText
 10
416.8811891279921
 20
36.81204578321129
 30
0.0
 40
4.724527499999998
  1
ＩＭ-Ｋ１２
 41
1.289455782312928
 72
     5
 11
456.6827085779922
 21
36.81204578321129
 31
0.0
100
AcDbText
  0
TEXT
  5
B18B
330
19
100
AcDbEntity
  8
1
 62
     0
100
AcDbText
 10
361.2981949832921
 20
9.924115845111288
 30
0.0
 40
4.19958
  1
平成１０年３月１２日
 41
0.8251231527093601
 72
     5
 11
401.4941749832921
 21
9.924115845111288
 31
0.0
100
AcDbText
  0
TEXT
  5
B18C
330
19
100
AcDbEntity
  8
1
 62
     0
100
AcDbText
 10
51.36126437708198
 20
10.14999647456431
 30
0.0
 40
9.449054999999997
  1
承認用図面
 72
     1
 11
78.44855537708197
 21
14.87452397456431
 31
0.0
100
AcDbText
 73
     2
  0
LINE
  5
B18D
330
19
100
AcDbEntity
  8
5
 62
     0
100
AcDbLine
 10
-1.646429677109196
 20
180.3070876643292
 30
0.0
 11
23.26875782289058
 21
180.3070876643292
 31
0.0
  0
LINE
  5
B18E
330
19
100
AcDbEntity
  8
5
 62
     0
100
AcDbLine
 10
273.2437578228906
 20
353.4147751643292
 30
0.0
 11
273.2437578228907
 21
365.5495876643292
 31
0.0
  0
LINE
  5
B190
330
19
100
AcDbEntity
  8
5
 62
     0
100
AcDbLine
 10
273.2437511478083
 20
-4.935412335670747
 30
0.0
 11
273.2437511478083
 21
7.199400164329205
 31
0.0
  0
TEXT
  5
B195
330
19
100
AcDbEntity
  8
1
 62
     0
100
AcDbText
 10
259.9959657193422
 20
8.938550911461305
 30
0.0
 40
11.9988
  1
殿
 41
1.071428571428568
 72
     5
 11
271.9947657193421
 21
8.938550911461305
 31
0.0
100
AcDbText
  0
TEXT
  5
B196
330
19
100
AcDbEntity
  8
1
 62
     0
100
AcDbText
 10
259.9959657193422
 20
23.57799432071116
 30
0.0
 40
10.9989
  1
殿
 41
1.168831168831165
 72
     5
 11
271.9947657193421
 21
23.57799432071116
 31
0.0
100
AcDbText
  0
TEXT
  5
B197
330
19
100
AcDbEntity
  8
1
 62
     0
100
AcDbText
 10
419.1643207919921
 20
42.46536639461126
 30
0.0
 40
4.19958
  1
Ｏ．
 41
1.426229508196716
 72
     5
 11
427.863450791992
 21
42.46536639461126
 31
0.0
100
AcDbText
  0
TEXT
  5
B198
330
19
100
AcDbEntity
  8
1
 62
     0
100
AcDbText
 10
415.9523270234921
 20
42.46536639461126
 30
0.0
 40
4.19958
  1
Ｎ
 41
1.24999999999999
 72
     5
 11
420.1519070234921
 21
42.46536639461126
 31
0.0
100
AcDbText
  0
TEXT
  5
B199
330
19
100
AcDbEntity
  8
1
 62
     0
100
AcDbText
 10
507.6146418752923
 20
42.46536639461126
 30
0.0
 40
4.19958
  1
製図
 41
1.00230414746544
 72
     5
 11
516.3137718752923
 21
42.46536639461126
 31
0.0
100
AcDbText
  0
TEXT
  5
B19A
330
19
100
AcDbEntity
  8
1
 62
     0
100
AcDbText
 10
491.5295810422421
 20
42.46536639461126
 30
0.0
 40
4.19958
  1
設計
 41
0.9709821428571647
 72
     5
 11
500.2287110422423
 21
42.46536639461126
 31
0.0
100
AcDbText
  0
TEXT
  5
B19B
330
19
100
AcDbEntity
  8
1
 62
     0
100
AcDbText
 10
475.444519709242
 20
42.46536639461126
 30
0.0
 40
4.19958
  1
検図
 41
1.00230414746546
 72
     5
 11
484.1436497092422
 21
42.46536639461126
 31
0.0
100
AcDbText
  0
TEXT
  5
B19C
330
19
100
AcDbEntity
  8
1
 62
     0
100
AcDbText
 10
407.5160067398921
 20
42.46536639461126
 30
0.0
 40
4.19958
  1
製品
 41
0.9709821428571647
 72
     5
 11
416.2151367398923
 21
42.46536639461126
 31
0.0
100
AcDbText
  0
TEXT
  5
B19D
330
19
100
AcDbEntity
  8
1
 62
     0
100
AcDbText
 10
23.73581559719214
 20
17.60039514041128
 30
0.0
 40
4.19958
  1
図面内容
 41
0.9296218487395005
 72
     5
 11
41.43404559719222
 21
17.60039514041128
 31
0.0
100
AcDbText
  0
LINE
  5
B19E
330
19
100
AcDbEntity
  8
5
 62
     0
100
AcDbLine
 10
507.1336965679829
 20
47.29591358383205
 30
0.0
 11
507.1336965679829
 21
34.9227790155326
 31
0.0
  0
LINE
  5
B19F
330
19
100
AcDbEntity
  8
5
 62
     0
100
AcDbLine
 10
491.048635313125
 20
47.29591358383205
 30
0.0
 11
491.048635313125
 21
34.9227790155326
 31
0.0
  0
LINE
  5
B1A0
330
19
100
AcDbEntity
  8
5
 62
     0
100
AcDbLine
 10
474.9635206578076
 20
47.29591358383205
 30
0.0
 11
474.9635206578076
 21
34.9227790155326
 31
0.0
  0
LINE
  5
B1A1
330
19
100
AcDbEntity
  8
5
 62
     0
100
AcDbLine
 10
458.8784594028999
 20
47.29591358383205
 30
0.0
 11
458.8784594028999
 21
34.9227790155326
 31
0.0
  0
LINE
  5
B1A2
330
19
100
AcDbEntity
  8
5
 62
     0
100
AcDbLine
 10
113.6303529312734
 20
22.54964778479942
 30
0.0
 11
23.26875782289058
 21
22.54964778479942
 31
0.0
  0
LINE
  5
B1A3
330
19
100
AcDbEntity
  8
5
 62
     0
100
AcDbLine
 10
113.6303529312734
 20
7.199400164329205
 30
0.0
 11
113.6303529312734
 21
34.9227790155326
 31
0.0
  0
LINE
  5
B1A4
330
19
100
AcDbEntity
  8
5
 62
     0
100
AcDbLine
 10
113.6303529312734
 20
27.49890227960239
 30
0.0
 11
192.8183914729598
 21
27.49890227960239
 31
0.0
  0
LINE
  5
B1A5
330
19
100
AcDbEntity
  8
5
 62
     0
100
AcDbLine
 10
192.8183914729598
 20
7.199400164329205
 30
0.0
 11
192.8183914729598
 21
34.9227790155326
 31
0.0
  0
LINE
  5
B1A6
330
19
100
AcDbEntity
  8
5
 62
     0
100
AcDbLine
 10
273.2437511478083
 20
7.199400164329205
 30
0.0
 11
273.2437511478083
 21
34.9227790155326
 31
0.0
  0
LINE
  5
B1A7
330
19
100
AcDbEntity
  8
5
 62
     0
100
AcDbLine
 10
359.8556831130559
 20
7.199400164329205
 30
0.0
 11
359.8556831130559
 21
22.42402901553257
 31
0.0
  0
LINE
  5
B1A8
330
19
100
AcDbEntity
  8
5
 62
     0
100
AcDbLine
 10
359.8556831130558
 20
47.29591358383205
 30
0.0
 11
523.2187578228907
 21
47.29591358383205
 31
0.0
  0
LINE
  5
B1A9
330
19
100
AcDbEntity
  8
5
 62
     0
100
AcDbLine
 10
406.9113055638074
 20
47.29591358383205
 30
0.0
 11
406.9113055638074
 21
7.199400164329205
 31
0.0
  0
LINE
  5
B1AA
330
19
100
AcDbEntity
  8
5
 62
     0
100
AcDbLine
 10
192.8183914729598
 20
22.42402901553257
 30
0.0
 11
406.9113055638074
 21
22.42402901553257
 31
0.0
  0
LINE
  5
B1AB
330
19
100
AcDbEntity
  8
5
 62
     0
100
AcDbLine
 10
23.26875782289058
 20
34.9227790155326
 30
0.0
 11
523.2187578228907
 21
34.9227790155326
 31
0.0
  0
TEXT
  5
B1AC
330
19
100
AcDbEntity
  8
1
 62
     0
100
AcDbText
 10
114.7838463835422
 20
29.10879468536123
 30
0.0
 40
4.19958
  1
御承認印
 41
0.9296218487394993
 72
     5
 11
132.4820763835423
 21
29.10879468536123
 31
0.0
100
AcDbText
  0
TEXT
  5
B1AD
330
19
100
AcDbEntity
  8
1
 62
     0
100
AcDbText
 10
164.5839128788421
 20
29.40970609121123
 30
0.0
 40
4.19958
  1
　年　月　日
 41
0.9348739495798385
 72
     5
 11
191.2812428788423
 21
29.40970609121123
 31
0.0
100
AcDbText
  0
LINE
  5
B1AE
330
19
100
AcDbEntity
  8
5
 62
     0
100
AcDbLine
 10
173.0213868438626
 20
7.199400164329205
 30
0.0
 11
173.0213868438626
 21
27.49890227960239
 31
0.0
  0
LINE
  5
B1AF
330
19
100
AcDbEntity
  8
5
 62
     0
100
AcDbLine
 10
153.2243688646004
 20
7.199400164329205
 30
0.0
 11
153.2243688646004
 21
27.49890227960239
 31
0.0
  0
LINE
  5
B1B0
330
19
100
AcDbEntity
  8
5
 62
     0
100
AcDbLine
 10
133.4273642354531
 20
7.199400164329205
 30
0.0
 11
133.4273642354531
 21
27.49890227960239
 31
0.0
  0
TEXT
  5
B1B1
330
19
100
AcDbEntity
  8
1
 62
     0
100
AcDbText
 10
193.5016273181921
 20
29.97352770341129
 30
0.0
 40
4.19958
  1
設計監理
 41
0.9296218487395002
 72
     5
 11
211.1998573181922
 21
29.97352770341129
 31
0.0
100
AcDbText
  0
TEXT
  5
B1B2
330
19
100
AcDbEntity
  8
1
 62
     0
100
AcDbText
 10
193.9180341733421
 20
17.47477620356122
 30
0.0
 40
4.19958
  1
施工
 41
0.9709821428571515
 72
     5
 11
202.6171641733423
 21
17.47477620356122
 31
0.0
100
AcDbText
  0
TEXT
  5
B1B3
330
19
100
AcDbEntity
  8
1
 62
     0
100
AcDbText
 10
274.0012270531421
 20
29.85971808551122
 30
0.0
 40
4.19958
  1
図面名称
 41
0.929621848739503
 72
     5
 11
291.6994570531422
 21
29.85971808551122
 31
0.0
100
AcDbText
  0
TEXT
  5
B1B4
330
19
100
AcDbEntity
  8
1
 62
     0
100
AcDbText
 10
274.5682478453921
 20
17.47477620356122
 30
0.0
 40
4.19958
  1
縮尺度
 41
0.9428571428571565
 72
     5
 11
287.7669278453923
 21
17.47477620356122
 31
0.0
100
AcDbText
  0
LINE
  5
B1B5
330
19
100
AcDbEntity
  8
5
 62
     0
100
AcDbLine
 10
356.1437397388164
 20
19.94940343688918
 30
0.0
 11
348.7198529903375
 21
10.78571308797021
 31
0.0
  0
LINE
  5
B1B6
330
19
100
AcDbEntity
  8
5
 62
     0
100
AcDbLine
 10
331.3974772773499
 20
19.94940343688918
 30
0.0
 11
323.973590528821
 21
10.78571308797021
 31
0.0
  0
LINE
  5
B1B7
330
19
100
AcDbEntity
  8
5
 62
     0
100
AcDbLine
 10
306.6512148158833
 20
19.94940343688918
 30
0.0
 11
299.2273280673546
 21
10.78570307537146
 31
0.0
  0
TEXT
  5
B1B8
330
19
100
AcDbEntity
  8
1
 62
     0
100
AcDbText
 10
360.3317156408921
 20
17.0590407812613
 30
0.0
 40
4.19958
  1
日付
 41
0.9709821428571519
 72
     5
 11
369.0308456408922
 21
17.0590407812613
 31
0.0
100
AcDbText
  0
LWPOLYLINE
  5
B75D
330
19
100
AcDbEntity
  8
1
 62
     0
100
AcDbPolyline
 90
        4
 70
     1
 43
0.0
 10
134.358599597126
 20
86.99968853018091
 10
134.358599597126
 20
71.99968853018091
 10
194.358599597126
 20
71.99968853018091
 10
194.358599597126
 20
86.99968853018091
  0
LINE
  5
B763
330
19
100
AcDbEntity
  8
1
 62
     0
100
AcDbLine
 10
134.358599597126
 20
73.49968853018092
 30
0.0
 11
194.358599597126
 21
73.49968853018092
 31
0.0
  0
TEXT
  5
B76A
330
19
100
AcDbEntity
  8
1
 62
     0
100
AcDbText
 10
367.5616614128158
 20
74.99968853018092
 30
0.0
 40
9.0
  1
縦断面図
  7
EXTFONT
 72
     1
 11
387.6616614128158
 21
74.99968853018092
 31
0.0
100
AcDbText
 73
     1
  0
LINE
  5
B76B
330
19
100
AcDbEntity
  8
1
 62
     0
100
AcDbLine
 10
357.6616614128158
 20
73.49968853018092
 30
0.0
 11
417.6616614128158
 21
73.49968853018092
 31
0.0
  0
LWPOLYLINE
  5
B76C
330
19
100
AcDbEntity
  8
1
 62
     0
100
AcDbPolyline
 90
        4
 70
     1
 43
0.0
 10
357.6616614128158
 20
86.99968853018091
 10
357.6616614128158
 20
71.99968853018091
 10
417.6616614128158
 20
71.99968853018091
 10
417.6616614128158
 20
86.99968853018091
  0
TEXT
  5
B7CB
330
19
100
AcDbEntity
  8
1
 62
     0
100
AcDbText
 10
159.558599597126
 20
74.99968853018092
 30
0.0
 40
9.0
  1
面図
  7
EXTFONT
 72
     1
 11
168.858599597126
 21
74.99968853018092
 31
0.0
100
AcDbText
 73
     1
  0
LINE
  5
B7CF
330
19
100
AcDbEntity
  8
1
 62
     0
100
AcDbLine
 10
150.2200838154276
 20
83.36583515935322
 30
0.0
 11
156.4381730754292
 21
83.36583515935322
 31
0.0
  0
LINE
  5
B7D0
330
19
100
AcDbEntity
  8
1
 62
     0
100
AcDbLine
 10
153.3291284454283
 20
83.36583515935322
 30
0.0
 11
153.3291284454283
 21
74.99968853018092
 31
0.0
  0
LINE
  5
B7D1
330
19
100
AcDbEntity
  8
1
 62
     0
100
AcDbLine
 10
150.9486953734616
 20
79.98867440449678
 30
0.0
 11
150.9486953734616
 21
74.99968853018092
 31
0.0
  0
LINE
  5
B7D2
330
19
100
AcDbEntity
  8
1
 62
     0
100
AcDbLine
 10
149.7200838154276
 20
74.99968853018092
 30
0.0
 11
156.9381730754292
 21
74.99968853018092
 31
0.0
  0
LINE
  5
B7D4
330
19
100
AcDbEntity
  8
1
 62
     0
100
AcDbLine
 10
153.3291284454283
 20
79.18276184476704
 30
0.0
 11
155.8291284454283
 21
79.18276184476704
 31
0.0
  0
LWPOLYLINE
  5
B80E
330
19
100
AcDbEntity
  8
5
 62
     0
100
AcDbPolyline
 90
        4
 70
     1
 43
0.0
 10
523.2187578228907
 20
7.199400164329205
 10
23.26875782289058
 20
7.199400164329205
 10
23.26875782289058
 20
353.4147751643292
 10
523.2187578228907
 20
353.4147751643292
  0
LINE
  5
B8EE
330
19
100
AcDbEntity
  8
5
 62
     0
100
AcDbLine
 10
535.3535703228908
 20
190.3070876643291
 30
0.0
 11
523.2187578228907
 21
190.3070876643292
 31
0.0
  0
LINE
  5
DAEA
330
19
100
AcDbEntity
  8
1
 62
     0
100
AcDbLine
 10
164.358599597126
 20
312.2446156848331
 30
0.0
 11
164.358599597126
 21
117.7446134509393
 31
0.0
  0
LINE
  5
E07A
330
19
100
AcDbEntity
  8
1
 62
     0
100
AcDbLine
 10
71.8585995971261
 20
214.9946145678862
 30
0.0
 11
443.4970834223491
 21
214.9946145678863
 31
0.0
  0
LWPOLYLINE
  5
128FC
330
19
100
AcDbEntity
  8
3
 62
     0
100
AcDbPolyline
 90
        8
 70
     1
 43
0.0
 10
81.85859959712605
 20
295.4946145678862
 10
81.85859959712605
 20
134.4946145678862
 42
0.4142135623730951
 10
83.85859959712604
 20
132.4946145678862
 10
244.8585995971261
 20
132.4946145678862
 42
0.4142135623730951
 10
246.8585995971261
 20
134.4946145678862
 10
246.8585995971261
 20
295.4946145678862
 42
0.414213562373095
 10
244.8585995971261
 20
297.4946145678862
 10
83.85859959712604
 20
297.4946145678862
 42
0.4142135623730951
  0
LINE
  5
12A37
330
19
100
AcDbEntity
  8
3
 62
     0
100
AcDbLine
 10
339.5985740630737
 20
260.4946145678862
 30
0.0
 11
339.5985740630737
 21
169.2446145678862
 31
0.0
  0
LWPOLYLINE
  5
12E6A
330
19
100
AcDbEntity
  8
3
 62
     0
100
AcDbPolyline
 90
        6
 70
     1
 43
0.0
 10
324.5985740630735
 20
269.4946145678862
 10
324.5985740630735
 20
262.4946145678862
 10
337.5985740630737
 20
262.4946145678862
 42
-0.4142135623730951
 10
339.5985740630737
 20
260.4946145678862
 10
322.5985740630737
 20
260.4946145678862
 10
322.5985740630736
 20
269.4946145678862
1001
ACAD
1000
ASC_BOUNDS
1002
{
1070
    19
1005
166F5
1002
}
  0
CIRCLE
  5
13176
330
19
100
AcDbEntity
  8
1
 62
     0
 48
2.0
100
AcDbCircle
 10
204.358599597126
 20
254.9946145678862
 30
0.0
 40
4.0
  0
ARC
  5
13280
330
19
100
AcDbEntity
  8
1
 62
     0
100
AcDbCircle
 10
323.8435740630743
 20
263.5946145678862
 30
0.0
 40
1.745000000000703
100
AcDbArc
 50
148.9517780065033
 51
211.0482219934967
  0
ARC
  5
13281
330
19
100
AcDbEntity
  8
1
 62
     0
100
AcDbCircle
 10
320.8535740630728
 20
261.7946145678861
 30
0.0
 40
1.745000000000703
100
AcDbArc
 50
328.9517780065033
 51
31.0482219934967
  0
ARC
  5
13286
330
19
100
AcDbEntity
  8
1
 62
     0
100
AcDbCircle
 10
323.8435740630743
 20
259.994614567886
 30
0.0
 40
1.745000000000703
100
AcDbArc
 50
148.9517780065033
 51
211.0482219934967
  0
ARC
  5
13287
330
19
100
AcDbEntity
  8
1
 62
     0
100
AcDbCircle
 10
320.8535740630728
 20
258.194614567886
 30
0.0
 40
1.745000000000703
100
AcDbArc
 50
328.9517780065033
 51
31.0482219934967
  0
ARC
  5
13288
330
19
100
AcDbEntity
  8
1
 62
     0
100
AcDbCircle
 10
323.8435740630743
 20
256.3946145678858
 30
0.0
 40
1.745000000000703
100
AcDbArc
 50
148.9517780065033
 51
211.0482219934967
  0
ARC
  5
13289
330
19
100
AcDbEntity
  8
1
 62
     0
100
AcDbCircle
 10
320.8535740630728
 20
254.5946145678858
 30
0.0
 40
1.745000000000703
100
AcDbArc
 50
328.9517780065033
 51
31.0482219934967
  0
ARC
  5
1328A
330
19
100
AcDbEntity
  8
1
 62
     0
100
AcDbCircle
 10
323.8435740630743
 20
252.7946145678856
 30
0.0
 40
1.745000000000703
100
AcDbArc
 50
148.9517780065033
 51
211.0482219934967
  0
ARC
  5
1328B
330
19
100
AcDbEntity
  8
1
 62
     0
100
AcDbCircle
 10
320.8535740630728
 20
250.9946145678856
 30
0.0
 40
1.745000000000703
100
AcDbArc
 50
328.9517780065033
 51
31.0482219934967
  0
ARC
  5
1328C
330
19
100
AcDbEntity
  8
1
 62
     0
100
AcDbCircle
 10
323.8435740630743
 20
249.1946145678854
 30
0.0
 40
1.745000000000703
100
AcDbArc
 50
148.9517780065033
 51
211.0482219934967
  0
ARC
  5
1328D
330
19
100
AcDbEntity
  8
1
 62
     0
100
AcDbCircle
 10
320.8535740630728
 20
247.3946145678854
 30
0.0
 40
1.745000000000703
100
AcDbArc
 50
328.9517780065033
 51
31.0482219934967
  0
ARC
  5
1328E
330
19
100
AcDbEntity
  8
1
 62
     0
100
AcDbCircle
 10
323.8435740630743
 20
245.5946145678852
 30
0.0
 40
1.745000000000703
100
AcDbArc
 50
148.9517780065033
 51
211.0482219934967
  0
ARC
  5
1328F
330
19
100
AcDbEntity
  8
1
 62
     0
100
AcDbCircle
 10
320.8535740630728
 20
243.7946145678852
 30
0.0
 40
1.745000000000703
100
AcDbArc
 50
328.9517780065033
 51
31.0482219934967
  0
ARC
  5
13290
330
19
100
AcDbEntity
  8
1
 62
     0
100
AcDbCircle
 10
323.8435740630743
 20
241.994614567885
 30
0.0
 40
1.745000000000703
100
AcDbArc
 50
148.9517780065033
 51
211.0482219934967
  0
ARC
  5
13291
330
19
100
AcDbEntity
  8
1
 62
     0
100
AcDbCircle
 10
320.8535740630728
 20
240.194614567885
 30
0.0
 40
1.745000000000703
100
AcDbArc
 50
328.9517780065033
 51
31.0482219934967
  0
ARC
  5
13292
330
19
100
AcDbEntity
  8
1
 62
     0
100
AcDbCircle
 10
323.8435740630743
 20
238.3946145678848
 30
0.0
 40
1.745000000000703
100
AcDbArc
 50
148.9517780065033
 51
211.0482219934967
  0
ARC
  5
13293
330
19
100
AcDbEntity
  8
1
 62
     0
100
AcDbCircle
 10
320.8535740630728
 20
236.5946145678848
 30
0.0
 40
1.745000000000703
100
AcDbArc
 50
328.9517780065033
 51
31.0482219934967
  0
ARC
  5
13294
330
19
100
AcDbEntity
  8
1
 62
     0
100
AcDbCircle
 10
323.8435740630743
 20
234.7946145678847
 30
0.0
 40
1.745000000000703
100
AcDbArc
 50
148.9517780065033
 51
211.0482219934967
  0
ARC
  5
13295
330
19
100
AcDbEntity
  8
1
 62
     0
100
AcDbCircle
 10
320.8535740630728
 20
232.9946145678846
 30
0.0
 40
1.745000000000703
100
AcDbArc
 50
328.9517780065033
 51
31.0482219934967
  0
ARC
  5
13296
330
19
100
AcDbEntity
  8
1
 62
     0
100
AcDbCircle
 10
323.8435740630743
 20
231.1946145678845
 30
0.0
 40
1.745000000000703
100
AcDbArc
 50
148.9517780065033
 51
211.0482219934967
  0
ARC
  5
13297
330
19
100
AcDbEntity
  8
1
 62
     0
100
AcDbCircle
 10
320.8535740630728
 20
229.3946145678844
 30
0.0
 40
1.745000000000703
100
AcDbArc
 50
328.9517780065033
 51
31.0482219934967
  0
ARC
  5
13298
330
19
100
AcDbEntity
  8
1
 62
     0
100
AcDbCircle
 10
323.8435740630743
 20
227.5946145678843
 30
0.0
 40
1.745000000000703
100
AcDbArc
 50
148.9517780065033
 51
211.0482219934967
  0
ARC
  5
13299
330
19
100
AcDbEntity
  8
1
 62
     0
100
AcDbCircle
 10
320.8535740630728
 20
225.7946145678842
 30
0.0
 40
1.745000000000703
100
AcDbArc
 50
328.9517780065033
 51
31.0482219934967
  0
ARC
  5
1329A
330
19
100
AcDbEntity
  8
1
 62
     0
100
AcDbCircle
 10
323.8435740630743
 20
223.9946145678841
 30
0.0
 40
1.745000000000703
100
AcDbArc
 50
148.9517780065033
 51
211.0482219934967
  0
ARC
  5
1329B
330
19
100
AcDbEntity
  8
1
 62
     0
100
AcDbCircle
 10
320.8535740630728
 20
222.194614567884
 30
0.0
 40
1.745000000000703
100
AcDbArc
 50
328.9517780065033
 51
31.0482219934967
  0
ARC
  5
1329C
330
19
100
AcDbEntity
  8
1
 62
     0
100
AcDbCircle
 10
323.8435740630743
 20
220.3946145678839
 30
0.0
 40
1.745000000000703
100
AcDbArc
 50
148.9517780065033
 51
211.0482219934967
  0
ARC
  5
1329D
330
19
100
AcDbEntity
  8
1
 62
     0
100
AcDbCircle
 10
320.8535740630728
 20
218.5946145678838
 30
0.0
 40
1.745000000000703
100
AcDbArc
 50
328.9517780065033
 51
31.0482219934967
  0
ARC
  5
1329E
330
19
100
AcDbEntity
  8
1
 62
     0
100
AcDbCircle
 10
323.8435740630743
 20
216.7946145678837
 30
0.0
 40
1.745000000000703
100
AcDbArc
 50
148.9517780065033
 51
211.0482219934967
  0
ARC
  5
1329F
330
19
100
AcDbEntity
  8
1
 62
     0
100
AcDbCircle
 10
320.8535740630728
 20
214.9946145678836
 30
0.0
 40
1.745000000000703
100
AcDbArc
 50
328.9517780065033
 51
31.0482219934967
  0
ARC
  5
132A0
330
19
100
AcDbEntity
  8
1
 62
     0
100
AcDbCircle
 10
323.8435740630743
 20
213.1946145678835
 30
0.0
 40
1.745000000000703
100
AcDbArc
 50
148.9517780065033
 51
211.0482219934967
  0
ARC
  5
132A1
330
19
100
AcDbEntity
  8
1
 62
     0
100
AcDbCircle
 10
320.8535740630728
 20
211.3946145678835
 30
0.0
 40
1.745000000000703
100
AcDbArc
 50
328.9517780065033
 51
31.0482219934967
  0
ARC
  5
132A2
330
19
100
AcDbEntity
  8
1
 62
     0
100
AcDbCircle
 10
323.8435740630743
 20
209.5946145678833
 30
0.0
 40
1.745000000000703
100
AcDbArc
 50
148.9517780065033
 51
211.0482219934967
  0
ARC
  5
132A3
330
19
100
AcDbEntity
  8
1
 62
     0
100
AcDbCircle
 10
320.8535740630728
 20
207.7946145678832
 30
0.0
 40
1.745000000000703
100
AcDbArc
 50
328.9517780065033
 51
31.0482219934967
  0
ARC
  5
132A4
330
19
100
AcDbEntity
  8
1
 62
     0
100
AcDbCircle
 10
323.8435740630743
 20
205.9946145678831
 30
0.0
 40
1.745000000000703
100
AcDbArc
 50
148.9517780065033
 51
211.0482219934967
  0
ARC
  5
132A5
330
19
100
AcDbEntity
  8
1
 62
     0
100
AcDbCircle
 10
320.8535740630728
 20
204.1946145678831
 30
0.0
 40
1.745000000000703
100
AcDbArc
 50
328.9517780065033
 51
31.0482219934967
  0
ARC
  5
132A6
330
19
100
AcDbEntity
  8
1
 62
     0
100
AcDbCircle
 10
323.8435740630743
 20
202.3946145678829
 30
0.0
 40
1.745000000000703
100
AcDbArc
 50
148.9517780065033
 51
211.0482219934967
  0
ARC
  5
132A7
330
19
100
AcDbEntity
  8
1
 62
     0
100
AcDbCircle
 10
320.8535740630728
 20
200.5946145678829
 30
0.0
 40
1.745000000000703
100
AcDbArc
 50
328.9517780065033
 51
31.0482219934967
  0
ARC
  5
132A8
330
19
100
AcDbEntity
  8
1
 62
     0
100
AcDbCircle
 10
323.8435740630743
 20
198.7946145678827
 30
0.0
 40
1.745000000000703
100
AcDbArc
 50
148.9517780065033
 51
211.0482219934967
  0
ARC
  5
132A9
330
19
100
AcDbEntity
  8
1
 62
     0
100
AcDbCircle
 10
320.8535740630728
 20
196.9946145678827
 30
0.0
 40
1.745000000000703
100
AcDbArc
 50
328.9517780065033
 51
31.0482219934967
  0
ARC
  5
132AA
330
19
100
AcDbEntity
  8
1
 62
     0
100
AcDbCircle
 10
323.8435740630743
 20
195.1946145678825
 30
0.0
 40
1.745000000000703
100
AcDbArc
 50
148.9517780065033
 51
211.0482219934967
  0
ARC
  5
132AB
330
19
100
AcDbEntity
  8
1
 62
     0
100
AcDbCircle
 10
320.8535740630728
 20
193.3946145678825
 30
0.0
 40
1.745000000000703
100
AcDbArc
 50
328.9517780065033
 51
31.0482219934967
  0
ARC
  5
132AC
330
19
100
AcDbEntity
  8
1
 62
     0
100
AcDbCircle
 10
323.8435740630743
 20
191.5946145678823
 30
0.0
 40
1.745000000000703
100
AcDbArc
 50
148.9517780065033
 51
211.0482219934967
  0
ARC
  5
132AD
330
19
100
AcDbEntity
  8
1
 62
     0
100
AcDbCircle
 10
320.8535740630728
 20
189.7946145678823
 30
0.0
 40
1.745000000000703
100
AcDbArc
 50
328.9517780065033
 51
31.0482219934967
  0
ARC
  5
132AE
330
19
100
AcDbEntity
  8
1
 62
     0
100
AcDbCircle
 10
323.8435740630743
 20
187.9946145678821
 30
0.0
 40
1.745000000000703
100
AcDbArc
 50
148.9517780065033
 51
211.0482219934967
  0
ARC
  5
132AF
330
19
100
AcDbEntity
  8
1
 62
     0
100
AcDbCircle
 10
320.8535740630728
 20
186.1946145678821
 30
0.0
 40
1.745000000000703
100
AcDbArc
 50
328.9517780065033
 51
31.0482219934967
  0
ARC
  5
132B0
330
19
100
AcDbEntity
  8
1
 62
     0
100
AcDbCircle
 10
323.8435740630743
 20
184.3946145678819
 30
0.0
 40
1.745000000000703
100
AcDbArc
 50
148.9517780065033
 51
211.0482219934967
  0
ARC
  5
132B1
330
19
100
AcDbEntity
  8
1
 62
     0
100
AcDbCircle
 10
320.8535740630728
 20
182.5946145678819
 30
0.0
 40
1.745000000000703
100
AcDbArc
 50
328.9517780065033
 51
31.0482219934967
  0
ARC
  5
132B2
330
19
100
AcDbEntity
  8
1
 62
     0
100
AcDbCircle
 10
323.8435740630743
 20
180.7946145678817
 30
0.0
 40
1.745000000000703
100
AcDbArc
 50
148.9517780065033
 51
211.0482219934967
  0
ARC
  5
132B3
330
19
100
AcDbEntity
  8
1
 62
     0
100
AcDbCircle
 10
320.8535740630728
 20
178.9946145678817
 30
0.0
 40
1.745000000000703
100
AcDbArc
 50
328.9517780065033
 51
31.0482219934967
  0
ARC
  5
132B4
330
19
100
AcDbEntity
  8
1
 62
     0
100
AcDbCircle
 10
323.8435740630743
 20
177.1946145678815
 30
0.0
 40
1.745000000000703
100
AcDbArc
 50
148.9517780065033
 51
211.0482219934967
  0
ARC
  5
132B5
330
19
100
AcDbEntity
  8
1
 62
     0
100
AcDbCircle
 10
320.8535740630728
 20
175.3946145678815
 30
0.0
 40
1.745000000000703
100
AcDbArc
 50
328.9517780065033
 51
31.0482219934967
  0
ARC
  5
132B6
330
19
100
AcDbEntity
  8
1
 62
     0
100
AcDbCircle
 10
323.8435740630743
 20
173.5946145678813
 30
0.0
 40
1.745000000000703
100
AcDbArc
 50
148.9517780065033
 51
211.0482219934967
  0
ARC
  5
132B7
330
19
100
AcDbEntity
  8
1
 62
     0
100
AcDbCircle
 10
320.8535740630728
 20
171.7946145678813
 30
0.0
 40
1.745000000000703
100
AcDbArc
 50
328.9517780065033
 51
31.0482219934967
  0
ARC
  5
132B8
330
19
100
AcDbEntity
  8
1
 62
     0
100
AcDbCircle
 10
323.8435740630743
 20
169.9946145678812
 30
0.0
 40
1.745000000000703
100
AcDbArc
 50
148.9517780065033
 51
211.0482219934967
  0
ARC
  5
132B9
330
19
100
AcDbEntity
  8
1
 62
     0
100
AcDbCircle
 10
320.8535740630728
 20
168.1946145678811
 30
0.0
 40
1.745000000000703
100
AcDbArc
 50
328.9517780065033
 51
31.0482219934967
  0
ARC
  5
132BA
330
19
100
AcDbEntity
  8
1
 62
     0
100
AcDbCircle
 10
323.8435740630743
 20
166.394614567881
 30
0.0
 40
1.745000000000703
100
AcDbArc
 50
148.9517780065033
 51
211.0482219934967
  0
CIRCLE
  5
132E9
330
19
100
AcDbEntity
  8
1
 62
     0
100
AcDbCircle
 10
322.3485740630735
 20
261.7946145678867
 30
0.0
 40
0.05
  0
CIRCLE
  5
132EA
330
19
100
AcDbEntity
  8
1
 62
     0
100
AcDbCircle
 10
322.3485740630735
 20
259.9946145678865
 30
0.0
 40
0.05
  0
CIRCLE
  5
132EB
330
19
100
AcDbEntity
  8
1
 62
     0
100
AcDbCircle
 10
322.3485740630735
 20
258.1946145678864
 30
0.0
 40
0.05
  0
CIRCLE
  5
132EC
330
19
100
AcDbEntity
  8
1
 62
     0
100
AcDbCircle
 10
322.3485740630735
 20
256.3946145678864
 30
0.0
 40
0.05
  0
CIRCLE
  5
132ED
330
19
100
AcDbEntity
  8
1
 62
     0
100
AcDbCircle
 10
322.3485740630735
 20
254.5946145678863
 30
0.0
 40
0.05
  0
CIRCLE
  5
132EE
330
19
100
AcDbEntity
  8
1
 62
     0
100
AcDbCircle
 10
322.3485740630735
 20
252.7946145678861
 30
0.0
 40
0.05
  0
CIRCLE
  5
132EF
330
19
100
AcDbEntity
  8
1
 62
     0
100
AcDbCircle
 10
322.3485740630735
 20
250.9946145678861
 30
0.0
 40
0.05
  0
CIRCLE
  5
132F0
330
19
100
AcDbEntity
  8
1
 62
     0
100
AcDbCircle
 10
322.3485740630735
 20
249.194614567886
 30
0.0
 40
0.05
  0
CIRCLE
  5
132F1
330
19
100
AcDbEntity
  8
1
 62
     0
100
AcDbCircle
 10
322.3485740630735
 20
247.3946145678858
 30
0.0
 40
0.05
  0
CIRCLE
  5
132F2
330
19
100
AcDbEntity
  8
1
 62
     0
100
AcDbCircle
 10
322.3485740630735
 20
245.5946145678858
 30
0.0
 40
0.05
  0
CIRCLE
  5
132F3
330
19
100
AcDbEntity
  8
1
 62
     0
100
AcDbCircle
 10
322.3485740630735
 20
243.7946145678857
 30
0.0
 40
0.05
  0
CIRCLE
  5
132F4
330
19
100
AcDbEntity
  8
1
 62
     0
100
AcDbCircle
 10
322.3485740630735
 20
241.9946145678856
 30
0.0
 40
0.05
  0
CIRCLE
  5
132F5
330
19
100
AcDbEntity
  8
1
 62
     0
100
AcDbCircle
 10
322.3485740630735
 20
240.1946145678855
 30
0.0
 40
0.05
  0
CIRCLE
  5
132F6
330
19
100
AcDbEntity
  8
1
 62
     0
100
AcDbCircle
 10
322.3485740630735
 20
238.3946145678854
 30
0.0
 40
0.05
  0
CIRCLE
  5
132F7
330
19
100
AcDbEntity
  8
1
 62
     0
100
AcDbCircle
 10
322.3485740630735
 20
236.5946145678853
 30
0.0
 40
0.05
  0
CIRCLE
  5
132F8
330
19
100
AcDbEntity
  8
1
 62
     0
100
AcDbCircle
 10
322.3485740630735
 20
234.7946145678852
 30
0.0
 40
0.05
  0
CIRCLE
  5
132F9
330
19
100
AcDbEntity
  8
1
 62
     0
100
AcDbCircle
 10
322.3485740630735
 20
232.9946145678851
 30
0.0
 40
0.05
  0
CIRCLE
  5
132FA
330
19
100
AcDbEntity
  8
1
 62
     0
100
AcDbCircle
 10
322.3485740630735
 20
231.194614567885
 30
0.0
 40
0.05
  0
CIRCLE
  5
132FB
330
19
100
AcDbEntity
  8
1
 62
     0
100
AcDbCircle
 10
322.3485740630735
 20
229.3946145678849
 30
0.0
 40
0.05
  0
CIRCLE
  5
132FC
330
19
100
AcDbEntity
  8
1
 62
     0
100
AcDbCircle
 10
322.3485740630735
 20
227.5946145678848
 30
0.0
 40
0.05
  0
CIRCLE
  5
132FD
330
19
100
AcDbEntity
  8
1
 62
     0
100
AcDbCircle
 10
322.3485740630735
 20
225.7946145678847
 30
0.0
 40
0.05
  0
CIRCLE
  5
132FE
330
19
100
AcDbEntity
  8
1
 62
     0
100
AcDbCircle
 10
322.3485740630735
 20
223.9946145678846
 30
0.0
 40
0.05
  0
CIRCLE
  5
132FF
330
19
100
AcDbEntity
  8
1
 62
     0
100
AcDbCircle
 10
322.3485740630735
 20
222.1946145678845
 30
0.0
 40
0.05
  0
CIRCLE
  5
13300
330
19
100
AcDbEntity
  8
1
 62
     0
100
AcDbCircle
 10
322.3485740630735
 20
220.3946145678844
 30
0.0
 40
0.05
  0
CIRCLE
  5
13301
330
19
100
AcDbEntity
  8
1
 62
     0
100
AcDbCircle
 10
322.3485740630735
 20
218.5946145678843
 30
0.0
 40
0.05
  0
CIRCLE
  5
13302
330
19
100
AcDbEntity
  8
1
 62
     0
100
AcDbCircle
 10
322.3485740630735
 20
216.7946145678842
 30
0.0
 40
0.05
  0
CIRCLE
  5
13303
330
19
100
AcDbEntity
  8
1
 62
     0
100
AcDbCircle
 10
322.3485740630735
 20
214.9946145678841
 30
0.0
 40
0.05
  0
CIRCLE
  5
13304
330
19
100
AcDbEntity
  8
1
 62
     0
100
AcDbCircle
 10
322.3485740630735
 20
213.194614567884
 30
0.0
 40
0.05
  0
CIRCLE
  5
13305
330
19
100
AcDbEntity
  8
1
 62
     0
100
AcDbCircle
 10
322.3485740630735
 20
211.3946145678839
 30
0.0
 40
0.05
  0
CIRCLE
  5
13306
330
19
100
AcDbEntity
  8
1
 62
     0
100
AcDbCircle
 10
322.3485740630735
 20
209.5946145678838
 30
0.0
 40
0.05
  0
CIRCLE
  5
13307
330
19
100
AcDbEntity
  8
1
 62
     0
100
AcDbCircle
 10
322.3485740630735
 20
207.7946145678837
 30
0.0
 40
0.05
  0
CIRCLE
  5
13308
330
19
100
AcDbEntity
  8
1
 62
     0
100
AcDbCircle
 10
322.3485740630735
 20
205.9946145678837
 30
0.0
 40
0.05
  0
CIRCLE
  5
13309
330
19
100
AcDbEntity
  8
1
 62
     0
100
AcDbCircle
 10
322.3485740630735
 20
204.1946145678835
 30
0.0
 40
0.05
  0
CIRCLE
  5
1330A
330
19
100
AcDbEntity
  8
1
 62
     0
100
AcDbCircle
 10
322.3485740630735
 20
202.3946145678834
 30
0.0
 40
0.05
  0
CIRCLE
  5
1330B
330
19
100
AcDbEntity
  8
1
 62
     0
100
AcDbCircle
 10
322.3485740630735
 20
200.5946145678834
 30
0.0
 40
0.05
  0
CIRCLE
  5
1330C
330
19
100
AcDbEntity
  8
1
 62
     0
100
AcDbCircle
 10
322.3485740630735
 20
198.7946145678832
 30
0.0
 40
0.05
  0
CIRCLE
  5
1330D
330
19
100
AcDbEntity
  8
1
 62
     0
100
AcDbCircle
 10
322.3485740630735
 20
196.9946145678831
 30
0.0
 40
0.05
  0
CIRCLE
  5
1330E
330
19
100
AcDbEntity
  8
1
 62
     0
100
AcDbCircle
 10
322.3485740630735
 20
195.1946145678831
 30
0.0
 40
0.05
  0
CIRCLE
  5
1330F
330
19
100
AcDbEntity
  8
1
 62
     0
100
AcDbCircle
 10
322.3485740630735
 20
193.3946145678829
 30
0.0
 40
0.05
  0
CIRCLE
  5
13311
330
19
100
AcDbEntity
  8
1
 62
     0
100
AcDbCircle
 10
322.3485740630735
 20
191.5946145678828
 30
0.0
 40
0.05
  0
CIRCLE
  5
13312
330
19
100
AcDbEntity
  8
1
 62
     0
100
AcDbCircle
 10
322.3485740630735
 20
189.7946145678828
 30
0.0
 40
0.05
  0
CIRCLE
  5
13313
330
19
100
AcDbEntity
  8
1
 62
     0
100
AcDbCircle
 10
322.3485740630735
 20
187.9946145678827
 30
0.0
 40
0.05
  0
CIRCLE
  5
13314
330
19
100
AcDbEntity
  8
1
 62
     0
100
AcDbCircle
 10
322.3485740630735
 20
186.1946145678825
 30
0.0
 40
0.05
  0
CIRCLE
  5
13315
330
19
100
AcDbEntity
  8
1
 62
     0
100
AcDbCircle
 10
322.3485740630735
 20
184.3946145678825
 30
0.0
 40
0.05
  0
CIRCLE
  5
13316
330
19
100
AcDbEntity
  8
1
 62
     0
100
AcDbCircle
 10
322.3485740630735
 20
182.5946145678824
 30
0.0
 40
0.05
  0
CIRCLE
  5
13317
330
19
100
AcDbEntity
  8
1
 62
     0
100
AcDbCircle
 10
322.3485740630735
 20
180.7946145678823
 30
0.0
 40
0.05
  0
CIRCLE
  5
13318
330
19
100
AcDbEntity
  8
1
 62
     0
100
AcDbCircle
 10
322.3485740630735
 20
178.9946145678822
 30
0.0
 40
0.05
  0
CIRCLE
  5
13319
330
19
100
AcDbEntity
  8
1
 62
     0
100
AcDbCircle
 10
322.3485740630735
 20
177.1946145678821
 30
0.0
 40
0.05
  0
CIRCLE
  5
1331A
330
19
100
AcDbEntity
  8
1
 62
     0
100
AcDbCircle
 10
322.3485740630735
 20
175.394614567882
 30
0.0
 40
0.05
  0
CIRCLE
  5
1331B
330
19
100
AcDbEntity
  8
1
 62
     0
100
AcDbCircle
 10
322.3485740630735
 20
173.5946145678819
 30
0.0
 40
0.05
  0
CIRCLE
  5
1331C
330
19
100
AcDbEntity
  8
1
 62
     0
100
AcDbCircle
 10
322.3485740630735
 20
171.7946145678818
 30
0.0
 40
0.05
  0
CIRCLE
  5
1331D
330
19
100
AcDbEntity
  8
1
 62
     0
100
AcDbCircle
 10
322.3485740630735
 20
169.9946145678817
 30
0.0
 40
0.05
  0
CIRCLE
  5
1331E
330
19
100
AcDbEntity
  8
1
 62
     0
100
AcDbCircle
 10
322.3485740630735
 20
168.1946145678816
 30
0.0
 40
0.05
  0
CIRCLE
  5
1331F
330
19
100
AcDbEntity
  8
1
 62
     0
100
AcDbCircle
 10
322.3485740630735
 20
166.3946145678815
 30
0.0
 40
0.05
  0
LINE
  5
1333D
330
19
100
AcDbEntity
  8
3
 62
     0
100
AcDbLine
 10
322.5985740630737
 20
260.4946145678862
 30
0.0
 11
322.5985740630737
 21
169.2446145678862
 31
0.0
  0
LINE
  5
13353
330
19
100
AcDbEntity
  8
3
 62
     0
100
AcDbLine
 10
328.0985740630737
 20
292.918308262529
 30
0.0
 11
328.0985740630737
 21
294.9946145678865
 31
0.0
1001
ACAD
1000
ASC_BOUNDS
1002
{
1070
    19
1005
169F7
1002
}
  0
LINE
  5
13354
330
19
100
AcDbEntity
  8
3
 62
     0
100
AcDbLine
 10
328.0985740630736
 20
294.9946145678864
 30
0.0
 11
298.0757081548897
 21
286.6224883078033
 31
0.0
1001
ACAD
1000
ASC_BOUNDS
1002
{
1070
    19
1005
169F7
1002
}
  0
LINE
  5
13359
330
19
100
AcDbEntity
  8
3
 62
     0
100
AcDbLine
 10
328.0985740630738
 20
135.7446145678864
 30
0.0
 11
328.0985740630738
 21
137.070920873244
 31
0.0
  0
LINE
  5
1335D
330
19
100
AcDbEntity
  8
3
 62
     0
100
AcDbLine
 10
328.0985740630737
 20
292.918308262529
 30
0.0
 11
328.0985740630738
 21
264.4946145678862
 31
0.0
1001
ACAD
1000
ASC_BOUNDS
1002
{
1070
    19
1002
}
  0
ARC
  5
13375
330
19
100
AcDbEntity
  8
3
 62
     0
100
AcDbCircle
 10
743.4255706410201
 20
214.9946145678865
 30
0.0
 40
452.8269965779517
100
AcDbArc
 50
171.2101863792171
 51
188.7898136207828
1001
ACAD
1000
ASC_BOUNDS
1002
{
1070
    19
1005
169F7
1002
}
  0
LINE
  5
13376
330
19
100
AcDbEntity
  8
3
 62
     0
100
AcDbLine
 10
328.0985740630737
 20
292.918308262529
 30
0.0
 11
298.6129281780638
 21
284.6959902811495
 31
0.0
1001
ACAD
1000
ASC_BOUNDS
1002
{
1070
    19
1005
169F7
1002
}
  0
ARC
  5
13377
330
19
100
AcDbEntity
  8
3
 62
     0
100
AcDbCircle
 10
743.4255706410201
 20
214.9946145678865
 30
0.0
 40
450.8269965779517
100
AcDbArc
 50
171.2101863792171
 51
188.7898136207828
1001
ACAD
1000
ASC_BOUNDS
1002
{
1070
    19
1005
169F7
1005
15C0D
1002
}
  0
LINE
  5
133A9
330
19
100
AcDbEntity
  8
3
 62
     0
100
AcDbLine
 10
301.4985740630736
 20
250.9946145678865
 30
0.0
 11
322.0985740630737
 21
250.9946145678865
 31
0.0
  0
LINE
  5
133AB
330
19
100
AcDbEntity
  8
3
 62
     0
100
AcDbLine
 10
302.0985740630737
 20
258.9946145678865
 30
0.0
 11
322.0985740630737
 21
258.9946145678865
 31
0.0
  0
ARC
  5
133B4
330
19
100
AcDbEntity
  8
3
 62
     0
100
AcDbCircle
 10
743.4255706410201
 20
214.9946145678865
 30
0.0
 40
445.8269965779517
100
AcDbArc
 50
171.0966265520137
 51
188.9033734479862
1001
ACAD
1000
ASC_BOUNDS
1002
{
1070
    19
1005
15C0D
1002
}
  0
ARC
  5
133D6
330
19
100
AcDbEntity
  8
3
 62
     0
100
AcDbCircle
 10
298.8815381896509
 20
283.7327412678226
 30
0.0
 40
3.0
100
AcDbArc
 50
105.5815711763749
 51
171.2101863792173
1001
ACAD
1000
ASC_BOUNDS
1002
{
1070
    19
1005
169F7
1002
}
  0
ARC
  5
133D7
330
19
100
AcDbEntity
  8
3
 62
     0
100
AcDbCircle
 10
298.8815381896509
 20
283.7327412678226
 30
0.0
 40
1.0
100
AcDbArc
 50
105.5815711763747
 51
171.2101863792183
1001
ACAD
1000
ASC_BOUNDS
1002
{
1070
    19
1005
169F7
1005
15C0D
1002
}
  0
LINE
  5
133E4
330
19
100
AcDbEntity
  8
3
 62
     0
100
AcDbLine
 10
328.0985740630736
 20
137.0709208732439
 30
0.0
 11
298.6129281780638
 21
145.2932388546233
 31
0.0
1001
ACAD
1000
ASC_BOUNDS
1002
{
1070
    19
1005
169F7
1002
}
  0
LINE
  5
133E6
330
19
100
AcDbEntity
  8
3
 62
     0
100
AcDbLine
 10
328.0985740630736
 20
134.9946145678865
 30
0.0
 11
298.0757081548897
 21
143.3667408279696
 31
0.0
1001
ACAD
1000
ASC_BOUNDS
1002
{
1070
    19
1005
169F7
1002
}
  0
ARC
  5
133E9
330
19
100
AcDbEntity
  8
3
 62
     0
100
AcDbCircle
 10
298.8815381896509
 20
146.2564878679503
 30
0.0
 40
3.0
100
AcDbArc
 50
188.7898136207827
 51
254.4184288236251
1001
ACAD
1000
ASC_BOUNDS
1002
{
1070
    19
1005
169F7
1002
}
  0
ARC
  5
133F2
330
19
100
AcDbEntity
  8
3
 62
     0
100
AcDbCircle
 10
718.0940353138789
 20
214.9946145678864
 30
0.0
 40
414.4954612508053
100
AcDbArc
 50
170.4175081088473
 51
173.9063913187025
  0
LINE
  5
133F6
330
19
100
AcDbEntity
  8
3
 62
     0
100
AcDbLine
 10
309.3820494393296
 20
283.9946145678865
 30
0.0
 11
304.4518146830647
 21
284.8269517880792
 31
0.0
  0
LINE
  5
133F7
330
19
100
AcDbEntity
  8
3
 62
     0
100
AcDbLine
 10
304.4518146830648
 20
284.8269517880792
 30
0.0
 11
298.6066098836915
 21
284.6942059975878
 31
0.0
1001
ACAD
1000
ASC_BOUNDS
1002
{
1070
    19
1005
15C0D
1002
}
  0
LINE
  5
133F9
330
19
100
AcDbEntity
  8
3
 62
     0
100
AcDbLine
 10
302.9704527484966
 20
283.9946145678865
 30
0.0
 11
298.6129281780638
 21
284.6959902811495
 31
0.0
1001
ACAD
1000
ASC_BOUNDS
1002
{
1070
    19
1005
15C0D
1002
}
  0
LINE
  5
133FA
330
19
100
AcDbEntity
  8
3
 62
     0
100
AcDbLine
 10
302.9704527484965
 20
283.9946145678865
 30
0.0
 11
309.3820494393296
 21
283.9946145678865
 31
0.0
  0
LINE
  5
133FB
330
19
100
AcDbEntity
  8
3
 62
     0
100
AcDbLine
 10
302.9704527484965
 20
145.9946145678864
 30
0.0
 11
309.3820494393296
 21
145.9946145678864
 31
0.0
  0
LINE
  5
133FC
330
19
100
AcDbEntity
  8
3
 62
     0
100
AcDbLine
 10
309.3820494393296
 20
145.9946145678864
 30
0.0
 11
304.4518146830647
 21
145.1622773476937
 31
0.0
  0
LINE
  5
133FD
330
19
100
AcDbEntity
  8
3
 62
     0
100
AcDbLine
 10
302.9704527484966
 20
145.9946145678864
 30
0.0
 11
298.6129281780638
 21
145.2932388546234
 31
0.0
1001
ACAD
1000
ASC_BOUNDS
1002
{
1070
    19
1005
15C0D
1002
}
  0
LINE
  5
133FE
330
19
100
AcDbEntity
  8
3
 62
     0
100
AcDbLine
 10
304.4518146830648
 20
145.1622773476937
 30
0.0
 11
298.6066098836915
 21
145.2950231381852
 31
0.0
1001
ACAD
1000
ASC_BOUNDS
1002
{
1070
    19
1005
169F7
1005
15C0D
1002
}
  0
ARC
  5
13400
330
19
100
AcDbEntity
  8
3
 62
     0
100
AcDbCircle
 10
298.8815381896509
 20
146.2564878679503
 30
0.0
 40
1.0
100
AcDbArc
 50
188.7898136207817
 51
254.4184288236253
1001
ACAD
1000
ASC_BOUNDS
1002
{
1070
    19
1005
169F7
1005
15C0D
1002
}
  0
ARC
  5
13425
330
19
100
AcDbEntity
  8
3
 62
     0
100
AcDbCircle
 10
236.3585995971261
 20
286.9946145678862
 30
0.0
 40
8.0
100
AcDbArc
 50
0.0
 51
90.0
  0
ARC
  5
13427
330
19
100
AcDbEntity
  8
3
 62
     0
100
AcDbCircle
 10
92.35859959712611
 20
286.9946145678862
 30
0.0
 40
8.0
100
AcDbArc
 50
90.0
 51
180.0
  0
ARC
  5
1342B
330
19
100
AcDbEntity
  8
3
 62
     0
100
AcDbCircle
 10
236.3585995971261
 20
142.9946145678861
 30
0.0
 40
8.0
100
AcDbArc
 50
270.0
 51
0.0
  0
ARC
  5
1342C
330
19
100
AcDbEntity
  8
3
 62
     0
100
AcDbCircle
 10
92.35859959712611
 20
142.9946145678861
 30
0.0
 40
8.0
100
AcDbArc
 50
180.0
 51
270.0
  0
LINE
  5
1342F
330
19
100
AcDbEntity
  8
3
 62
     0
100
AcDbLine
 10
94.35859959712605
 20
280.4946145678862
 30
0.0
 11
94.35859959712605
 21
149.4946145678861
 31
0.0
  0
LINE
  5
13430
330
19
100
AcDbEntity
  8
3
 62
     0
100
AcDbLine
 10
234.3585995971261
 20
280.4946145678862
 30
0.0
 11
234.3585995971261
 21
149.4946145678861
 31
0.0
  0
LINE
  5
13435
330
19
100
AcDbEntity
  8
3
 62
     0
100
AcDbLine
 10
98.85859959712604
 20
284.9946145678861
 30
0.0
 11
229.8585995971261
 21
284.9946145678862
 31
0.0
  0
ARC
  5
13436
330
19
100
AcDbEntity
  8
3
 62
     0
100
AcDbCircle
 10
229.8585995971261
 20
280.4946145678862
 30
0.0
 40
4.5
100
AcDbArc
 50
0.0
 51
90.0
  0
ARC
  5
13437
330
19
100
AcDbEntity
  8
3
 62
     0
100
AcDbCircle
 10
98.85859959712604
 20
280.4946145678862
 30
0.0
 40
4.5
100
AcDbArc
 50
90.0
 51
180.0
  0
ARC
  5
13438
330
19
100
AcDbEntity
  8
3
 62
     0
100
AcDbCircle
 10
98.85859959712604
 20
149.4946145678861
 30
0.0
 40
4.5
100
AcDbArc
 50
180.0
 51
270.0
  0
ARC
  5
13439
330
19
100
AcDbEntity
  8
3
 62
     0
100
AcDbCircle
 10
229.8585995971261
 20
149.4946145678861
 30
0.0
 40
4.5
100
AcDbArc
 50
270.0
 51
0.0
  0
LINE
  5
1343A
330
19
100
AcDbEntity
  8
3
 62
     0
100
AcDbLine
 10
98.85859959712604
 20
144.9946145678861
 30
0.0
 11
229.8585995971261
 21
144.9946145678862
 31
0.0
  0
LINE
  5
13447
330
19
100
AcDbEntity
  8
3
 62
     0
100
AcDbLine
 10
234.9080014227134
 20
292.9659475272292
 30
0.0
 11
231.6252526172473
 21
287.7835745147165
 31
0.0
  0
LINE
  5
1344D
330
19
100
AcDbEntity
  8
3
 62
     0
100
AcDbLine
 10
241.9800996296189
 20
285.9287360758785
 30
0.0
 11
236.8140237702086
 21
282.6203996396273
 31
0.0
  0
LINE
  5
1344E
330
19
100
AcDbEntity
  8
3
 62
     0
100
AcDbLine
 10
86.387266637783
 20
285.5440163934736
 30
0.0
 11
91.56963965029573
 21
282.2612675880074
 31
0.0
  0
LINE
  5
1344F
330
19
100
AcDbEntity
  8
3
 62
     0
100
AcDbLine
 10
93.42447808913366
 20
292.6161146003791
 30
0.0
 11
96.73281452538487
 21
287.4500387409687
 31
0.0
  0
LINE
  5
13450
330
19
100
AcDbEntity
  8
3
 62
     0
100
AcDbLine
 10
93.80919777153867
 20
137.0232816085431
 30
0.0
 11
97.09194657700486
 21
142.2056546210558
 31
0.0
  0
LINE
  5
13451
330
19
100
AcDbEntity
  8
3
 62
     0
100
AcDbLine
 10
86.73709956463312
 20
144.0604930598937
 30
0.0
 11
91.90317542404349
 21
147.368829496145
 31
0.0
  0
LINE
  5
13452
330
19
100
AcDbEntity
  8
3
 62
     0
100
AcDbLine
 10
242.3299325564691
 20
144.4452127422988
 30
0.0
 11
237.1475595439564
 21
147.7279615477649
 31
0.0
  0
LINE
  5
13453
330
19
100
AcDbEntity
  8
3
 62
     0
100
AcDbLine
 10
235.2927211051185
 20
137.3731145353932
 30
0.0
 11
231.9843846688672
 21
142.5391903948036
 31
0.0
  0
CIRCLE
  5
13469
330
19
100
AcDbEntity
  8
1
 62
     0
 48
2.0
100
AcDbCircle
 10
124.358599597126
 20
254.9946145678862
 30
0.0
 40
4.0
  0
CIRCLE
  5
1346A
330
19
100
AcDbEntity
  8
1
 62
     0
 48
2.0
100
AcDbCircle
 10
124.358599597126
 20
174.9946145678861
 30
0.0
 40
4.0
  0
CIRCLE
  5
1346B
330
19
100
AcDbEntity
  8
1
 62
     0
 48
2.0
100
AcDbCircle
 10
204.358599597126
 20
174.9946145678862
 30
0.0
 40
4.0
  0
DIMENSION
  5
13478
330
19
100
AcDbEntity
  8
1
 62
     0
100
AcDbDimension
  2
*D0
 10
277.8659071160739
 20
297.4946145678862
 30
0.0
 11
274.1159071160739
 21
214.9946145678862
 31
0.0
 70
    32
 71
     5
 42
165.0
  3
KIHONN
100
AcDbAlignedDimension
 13
244.8585995971261
 23
132.4946145678862
 33
0.0
 14
244.8585995971261
 24
297.4946145678862
 34
0.0
 50
90.0
100
AcDbRotatedDimension
  0
LINE
  5
13501
330
19
100
AcDbEntity
  8
3
 62
     0
100
AcDbLine
 10
244.8585995971261
 20
295.4946145678862
 30
0.0
 11
242.0154538466185
 21
292.6514688173786
 31
0.0
  0
LINE
  5
13506
330
19
100
AcDbEntity
  8
3
 62
     0
100
AcDbLine
 10
83.85859959712602
 20
295.4946145678862
 30
0.0
 11
86.70174534763365
 21
292.6514688173786
 31
0.0
  0
LINE
  5
13507
330
19
100
AcDbEntity
  8
3
 62
     0
100
AcDbLine
 10
83.85859959712602
 20
134.4946145678861
 30
0.0
 11
86.7017453476336
 21
137.3377603183937
 31
0.0
  0
LINE
  5
13508
330
19
100
AcDbEntity
  8
3
 62
     0
100
AcDbLine
 10
244.8585995971261
 20
134.4946145678861
 30
0.0
 11
242.0154538466185
 21
137.3377603183937
 31
0.0
  0
ARC
  5
13509
330
19
100
AcDbEntity
  8
3
 62
     0
100
AcDbCircle
 10
718.0940353138789
 20
214.9946145678864
 30
0.0
 40
414.4954612508053
100
AcDbArc
 50
175.0174360933262
 51
184.9825639066738
  0
ARC
  5
1350A
330
19
100
AcDbEntity
  8
3
 62
     0
100
AcDbCircle
 10
718.0940353138789
 20
214.9946145678864
 30
0.0
 40
414.4954612508053
100
AcDbArc
 50
186.0936086812974
 51
189.5824918911527
  0
LINE
  5
1350B
330
19
100
AcDbEntity
  8
3
 62
     0
100
AcDbLine
 10
328.0985740630736
 20
165.4946145678862
 30
0.0
 11
328.0985740630736
 21
134.9946145678865
 31
0.0
1001
ACAD
1000
ASC_BOUNDS
1002
{
1070
    19
1005
169F7
1002
}
  0
ARC
  5
1350F
330
19
100
AcDbEntity
  8
3
 62
     0
100
AcDbCircle
 10
341.9235740630875
 20
251.9852395678854
 30
0.0
 40
40.43713593828999
100
AcDbArc
 50
170.0179265064457
 51
181.403766835916
  0
LINE
  5
13510
330
19
100
AcDbEntity
  8
3
 62
     0
100
AcDbLine
 10
302.0985740630737
 20
170.9946145678858
 30
0.0
 11
322.0985740630737
 21
170.9946145678858
 31
0.0
  0
LINE
  5
13511
330
19
100
AcDbEntity
  8
3
 62
     0
100
AcDbLine
 10
301.4985740630736
 20
178.9946145678858
 30
0.0
 11
322.0985740630737
 21
178.9946145678858
 31
0.0
  0
ARC
  5
13512
330
19
100
AcDbEntity
  8
3
 62
     0
100
AcDbCircle
 10
341.9235740630875
 20
178.0039895678869
 30
0.0
 40
40.43713593828999
100
AcDbArc
 50
178.5962331640839
 51
189.9820734935543
  0
LINE
  5
151DA
330
19
100
AcDbEntity
  8
3
 62
     0
100
AcDbLine
 10
322.0985740630737
 20
258.9946145678865
 30
0.0
 11
322.0985740630737
 21
250.9946145678865
 31
0.0
  0
LINE
  5
151E1
330
19
100
AcDbEntity
  8
3
 62
     0
100
AcDbLine
 10
322.0985740630737
 20
178.9946145678858
 30
0.0
 11
322.0985740630737
 21
170.9946145678858
 31
0.0
  0
DIMENSION
  5
15399
330
19
100
AcDbEntity
  8
1
 62
     0
100
AcDbDimension
  2
*D1
 10
358.5985740630737
 20
315.2083766445051
 30
0.0
 11
324.5985740630711
 21
318.958376644505
 31
0.0
 70
    32
 71
     5
 42
68.00000000000522
  3
KIHONN
100
AcDbAlignedDimension
 13
290.5985740630685
 23
214.9946145678862
 33
0.0
 14
358.5985740630737
 24
297.4946145678863
 34
0.0
100
AcDbRotatedDimension
  0
CIRCLE
  5
155C7
330
19
100
AcDbEntity
  8
1
 62
     0
100
AcDbCircle
 10
322.3485740630735
 20
263.5946145678868
 30
0.0
 40
0.05
  0
LINE
  5
156DE
330
19
100
AcDbEntity
  8
3
 62
     0
100
AcDbLine
 10
358.5985740630787
 20
134.6946145678861
 30
0.0
 11
358.5985740630736
 21
132.4946145678861
 31
0.0
1001
ACAD
1000
ASC_BOUNDS
1002
{
1070
    19
1005
16926
1002
}
  0
LINE
  5
156E0
330
19
100
AcDbEntity
  8
3
 62
     0
100
AcDbLine
 10
359.0985740630734
 20
165.4946145678861
 30
0.0
 11
359.0985740630735
 21
154.6946145678861
 31
0.0
1001
ACAD
1000
ASC_BOUNDS
1002
{
1070
    19
1002
}
  0
LINE
  5
156E1
330
19
100
AcDbEntity
  8
3
 62
     0
100
AcDbLine
 10
352.5985740630736
 20
137.6460023867522
 30
0.0
 11
352.5985740630736
 21
163.7446145678863
 31
0.0
1001
ACAD
1000
ASC_BOUNDS
1002
{
1070
    19
1005
16926
1002
}
  0
LINE
  5
156E2
330
19
100
AcDbEntity
  8
3
 62
     0
100
AcDbLine
 10
352.5985740630736
 20
163.7446145678863
 30
0.0
 11
355.0985740630736
 21
163.7446145678863
 31
0.0
1001
ACAD
1000
ASC_BOUNDS
1002
{
1070
    19
1005
16926
1002
}
  0
LINE
  5
156E3
330
19
100
AcDbEntity
  8
3
 62
     0
100
AcDbLine
 10
352.5985740630736
 20
163.7446145678863
 30
0.0
 11
352.5985740630736
 21
165.4946145678862
 31
0.0
  0
LINE
  5
156E4
330
19
100
AcDbEntity
  8
3
 62
     0
100
AcDbLine
 10
362.0985740630736
 20
154.6946145678861
 30
0.0
 11
362.0985740630787
 21
134.694614567886
 31
0.0
1001
ACAD
1000
ASC_BOUNDS
1002
{
1070
    19
1005
16A9E
1002
}
  0
LINE
  5
156E5
330
19
100
AcDbEntity
  8
3
 62
     0
100
AcDbLine
 10
357.0985740630736
 20
154.6946145678861
 30
0.0
 11
362.0985740630736
 21
154.6946145678861
 31
0.0
1001
ACAD
1000
ASC_BOUNDS
1002
{
1070
    19
1005
16A9E
1002
}
  0
LINE
  5
156F0
330
19
100
AcDbEntity
  8
3
 62
     0
100
AcDbLine
 10
356.2985740630736
 20
134.6946145678861
 30
0.0
 11
362.0985740630787
 21
134.6946145678861
 31
0.0
1001
ACAD
1000
ASC_BOUNDS
1002
{
1070
    19
1005
16926
1005
16A9E
1002
}
  0
LWPOLYLINE
  5
15702
330
19
100
AcDbEntity
  8
3
 62
     0
100
AcDbPolyline
 90
        8
 70
     1
 43
0.0
 10
357.0985740630735
 20
140.0046025966003
 10
355.0985740630735
 20
140.0046025966003
 10
355.0985740630735
 20
165.4946145678862
 10
324.5985740630735
 20
165.4946145678862
 10
324.5985740630735
 20
167.4946145678862
 10
347.0985740630734
 20
167.4946145678862
 10
347.0985740630734
 20
166.4946145678862
 10
357.0985740630736
 20
166.4946145678862
1001
ACAD
1000
ASC_BOUNDS
1002
{
1070
    19
1005
167BF
1005
16926
1005
16A9E
1002
}
  0
LWPOLYLINE
  5
1570D
330
19
100
AcDbEntity
  8
3
 62
     0
100
AcDbPolyline
 90
        6
 70
     1
 43
0.0
 10
324.5985740630735
 20
160.4946145678862
 10
324.5985740630735
 20
167.4946145678861
 10
337.5985740630737
 20
167.4946145678861
 42
0.4142135623730951
 10
339.5985740630737
 20
169.4946145678861
 10
322.5985740630737
 20
169.4946145678861
 10
322.5985740630736
 20
160.4946145678862
1001
ACAD
1000
ASC_BOUNDS
1002
{
1070
    19
1005
1687D
1005
167BF
1002
}
  0
DIMENSION
  5
159E0
330
19
100
AcDbEntity
  8
1
 62
     0
100
AcDbDimension
  2
*D2
 10
268.6973710957402
 20
134.9946145678861
 30
0.0
 11
264.9473710957401
 21
214.9946145678862
 31
0.0
 70
    32
 71
     5
 42
160.0
  3
KIHONN
100
AcDbAlignedDimension
 13
236.3585995971261
 23
294.9946145678861
 33
0.0
 14
236.3585995971261
 24
134.9946145678861
 34
0.0
 50
90.0
100
AcDbRotatedDimension
  0
DIMENSION
  5
159ED
330
19
100
AcDbEntity
  8
1
 62
     0
100
AcDbDimension
  2
*D3
 10
328.0985740630737
 20
305.3024848375612
 30
0.0
 11
309.3485740630711
 21
309.0524848375612
 31
0.0
 70
    32
 71
     5
 42
37.50000000000523
  3
KIHONN
100
AcDbAlignedDimension
 13
290.5985740630685
 23
214.9946145678862
 33
0.0
 14
328.0985740630737
 24
294.9946145678865
 34
0.0
100
AcDbRotatedDimension
  0
DIMENSION
  5
159FA
330
19
100
AcDbEntity
  8
1
 62
     0
100
AcDbDimension
  2
*D4
 10
246.8585995971261
 20
94.34500083131343
 30
0.0
 11
164.3585995971261
 21
98.09500083131343
 31
0.0
 70
    32
 71
     5
 42
165.0
  3
KIHONN
100
AcDbAlignedDimension
 13
81.85859959712605
 23
134.4946145678862
 33
0.0
 14
246.8585995971261
 24
134.4946145678862
 34
0.0
100
AcDbRotatedDimension
  0
ARC
  5
159FF
330
19
100
AcDbEntity
  8
1
 62
     0
100
AcDbCircle
 10
320.8535740630728
 20
164.5946145678809
 30
0.0
 40
1.745000000000703
100
AcDbArc
 50
21.86943935716914
 51
31.0482219934967
  0
ARC
  5
15A02
330
19
100
AcDbEntity
  8
1
 62
     0
100
AcDbCircle
 10
320.8535740630728
 20
265.3946145678864
 30
0.0
 40
1.745000000000703
100
AcDbArc
 50
328.9517780065033
 51
338.1305606430118
  0
DIMENSION
  5
15A0F
330
19
100
AcDbEntity
  8
1
 62
     0
100
AcDbDimension
  2
*D5
 10
244.3585995971261
 20
108.6247830536624
 30
0.0
 11
164.3585995971261
 21
112.3747830536624
 31
0.0
 70
    32
 71
     5
 42
160.0
  3
KIHONN
100
AcDbAlignedDimension
 13
84.3585995971261
 23
142.9946145678861
 33
0.0
 14
244.3585995971261
 24
142.9946145678861
 34
0.0
100
AcDbRotatedDimension
  0
LINE
  5
15BF5
330
19
100
AcDbEntity
  8
3
 62
     0
100
AcDbLine
 10
92.35859959712611
 20
294.9946145678861
 30
0.0
 11
236.3585995971261
 21
294.9946145678861
 31
0.0
  0
LINE
  5
15BF6
330
19
100
AcDbEntity
  8
3
 62
     0
100
AcDbLine
 10
244.3585995971261
 20
286.9946145678862
 30
0.0
 11
244.3585995971261
 21
142.9946145678861
 31
0.0
  0
LINE
  5
15BF7
330
19
100
AcDbEntity
  8
3
 62
     0
100
AcDbLine
 10
236.3585995971261
 20
134.9946145678861
 30
0.0
 11
92.35859959712611
 21
134.9946145678861
 31
0.0
  0
LINE
  5
15BF8
330
19
100
AcDbEntity
  8
3
 62
     0
100
AcDbLine
 10
84.3585995971261
 20
142.9946145678861
 30
0.0
 11
84.3585995971261
 21
286.9946145678862
 31
0.0
  0
INSERT
  5
15C0D
330
19
100
AcDbEntity
  8
1
 62
     0
100
AcDbBlockReference
  2
*X6
 10
21.73287576298549
 20
0.0
 30
0.0
1001
ACAD
1000
HATCH
1002
{
1070
    19
1000
HEX
1040
0.6
1040
0.0
1000
ASC_BOUNDS
1070
     1
1070
     1
1070
     8
1005
133F9
1005
133F7
1005
133D7
1005
13377
1005
13400
1005
133FE
1005
133FD
1005
133B4
1000
ASC_SEEDPOINT
1011
297.0652499927146
1021
236.8772211741434
1031
0.0
1002
}
  0
LINE
  5
15C9C
330
19
100
AcDbEntity
  8
1
 62
     0
100
AcDbLine
 10
317.0985740630737
 20
256.3446145678865
 30
0.0
 11
317.0985740630737
 21
253.6446145678866
 31
0.0
  0
LINE
  5
15CA0
330
19
100
AcDbEntity
  8
1
 62
     0
100
AcDbLine
 10
297.0985740630737
 20
256.6446145678865
 30
0.0
 11
297.0985740630737
 21
253.3446145678865
 31
0.0
  0
ARC
  5
15CA1
330
19
100
AcDbEntity
  8
1
 62
     0
100
AcDbCircle
 10
317.3985740630737
 20
256.3446145678865
 30
0.0
 40
0.3
100
AcDbArc
 50
90.0
 51
180.0
  0
ARC
  5
15CA3
330
19
100
AcDbEntity
  8
1
 62
     0
100
AcDbCircle
 10
317.3985740630737
 20
253.6446145678866
 30
0.0
 40
0.3
100
AcDbArc
 50
180.0
 51
270.0
  0
LINE
  5
15CA4
330
19
100
AcDbEntity
  8
1
 62
     0
100
AcDbLine
 10
297.0985740630737
 20
256.6446145678865
 30
0.0
 11
322.0985740630737
 21
256.6446145678865
 31
0.0
  0
LINE
  5
15CA5
330
19
100
AcDbEntity
  8
1
 62
     0
100
AcDbLine
 10
297.0985740630737
 20
253.3446145678865
 30
0.0
 11
322.0985740630737
 21
253.3446145678865
 31
0.0
  0
LINE
  5
15CAD
330
19
100
AcDbEntity
  8
3
 62
     0
100
AcDbLine
 10
322.0985740630737
 20
256.6446145678865
 30
0.0
 11
322.5985740630737
 21
256.6446145678865
 31
0.0
  0
LINE
  5
15CAE
330
19
100
AcDbEntity
  8
3
 62
     0
100
AcDbLine
 10
322.0985740630737
 20
253.3446145678865
 30
0.0
 11
322.5985740630737
 21
253.3446145678865
 31
0.0
  0
LINE
  5
15CAF
330
19
100
AcDbEntity
  8
1
 62
     0
100
AcDbLine
 10
297.0985740630737
 20
176.6446145678858
 30
0.0
 11
322.0985740630737
 21
176.6446145678858
 31
0.0
  0
LINE
  5
15CB0
330
19
100
AcDbEntity
  8
1
 62
     0
100
AcDbLine
 10
297.0985740630737
 20
173.3446145678858
 30
0.0
 11
322.0985740630737
 21
173.3446145678858
 31
0.0
  0
ARC
  5
15CB1
330
19
100
AcDbEntity
  8
1
 62
     0
100
AcDbCircle
 10
317.3985740630737
 20
173.6446145678858
 30
0.0
 40
0.3
100
AcDbArc
 50
180.0
 51
270.0
  0
ARC
  5
15CB2
330
19
100
AcDbEntity
  8
1
 62
     0
100
AcDbCircle
 10
317.3985740630737
 20
176.3446145678858
 30
0.0
 40
0.3
100
AcDbArc
 50
90.0
 51
180.0
  0
LINE
  5
15CB3
330
19
100
AcDbEntity
  8
1
 62
     0
100
AcDbLine
 10
317.0985740630737
 20
173.6446145678858
 30
0.0
 11
317.0985740630737
 21
176.3446145678858
 31
0.0
  0
LINE
  5
15CB4
330
19
100
AcDbEntity
  8
1
 62
     0
100
AcDbLine
 10
297.0985740630737
 20
173.3446145678858
 30
0.0
 11
297.0985740630737
 21
176.6446145678858
 31
0.0
  0
LINE
  5
15CB5
330
19
100
AcDbEntity
  8
3
 62
     0
100
AcDbLine
 10
322.0985740630737
 20
173.3446145678858
 30
0.0
 11
322.5985740630737
 21
173.3446145678858
 31
0.0
  0
LINE
  5
15CB6
330
19
100
AcDbEntity
  8
3
 62
     0
100
AcDbLine
 10
322.0985740630737
 20
176.6446145678858
 30
0.0
 11
322.5985740630737
 21
176.6446145678858
 31
0.0
  0
LINE
  5
15CFD
330
19
100
AcDbEntity
  8
3
 62
     0
100
AcDbLine
 10
355.0985740630735
 20
137.6946145678863
 30
0.0
 11
355.0985740630736
 21
152.1989030310159
 31
0.0
1001
ACAD
1000
ASC_BOUNDS
1002
{
1070
    19
1005
16926
1005
16A9E
1002
}
  0
LINE
  5
15EA5
330
19
100
AcDbEntity
  8
3
 62
     0
100
AcDbLine
 10
356.2985740630736
 20
134.6946145678861
 30
0.0
 11
355.0985740630735
 21
137.6946145678861
 31
0.0
1001
ACAD
1000
ASC_BOUNDS
1002
{
1070
    19
1005
16926
1005
16A9E
1002
}
  0
LINE
  5
15F01
330
19
100
AcDbEntity
  8
3
 62
     0
100
AcDbLine
 10
352.6825489159045
 20
137.3686522886396
 30
0.0
 11
355.4784171219105
 21
133.1748499796307
 31
0.0
1001
ACAD
1000
ASC_BOUNDS
1002
{
1070
    19
1005
16926
1002
}
  0
ARC
  5
1611F
330
19
100
AcDbEntity
  8
3
 62
     0
100
AcDbCircle
 10
353.0985740630736
 20
137.6460023867522
 30
0.0
 40
0.5
100
AcDbArc
 50
180.0
 51
213.690067525978
1001
ACAD
1000
ASC_BOUNDS
1002
{
1070
    19
1005
16926
1002
}
  0
LINE
  5
16125
330
19
100
AcDbEntity
  8
3
 62
     0
100
AcDbLine
 10
358.5985740630736
 20
132.4946145678861
 30
0.0
 11
355.8122427754268
 21
132.9590031158272
 31
0.0
1001
ACAD
1000
ASC_BOUNDS
1002
{
1070
    19
1005
16926
1002
}
  0
ARC
  5
16126
330
19
100
AcDbEntity
  8
3
 62
     0
100
AcDbCircle
 10
355.8944422690794
 20
133.4522000777433
 30
0.0
 40
0.5
100
AcDbArc
 50
213.6900675259789
 51
260.5376777919722
1001
ACAD
1000
ASC_BOUNDS
1002
{
1070
    19
1005
16926
1002
}
  0
LINE
  5
16249
330
19
100
AcDbEntity
  8
1
 62
     0
 48
0.2
100
AcDbLine
 10
352.5985740630736
 20
291.4946145678864
 30
0.0
 11
355.0985740630735
 21
289.4946145678864
 31
0.0
  0
LINE
  5
1624A
330
19
100
AcDbEntity
  8
1
 62
     0
 48
0.2
100
AcDbLine
 10
366.809100378863
 20
284.8946145678864
 30
0.0
 11
365.3880477472839
 21
290.2946145678864
 31
0.0
  0
LINE
  5
1624B
330
19
100
AcDbEntity
  8
1
 62
     0
100
AcDbLine
 10
385.3187811600372
 20
287.5946145678864
 30
0.0
 11
347.5985740630735
 21
287.5946145678864
 31
0.0
  0
LINE
  5
1624C
330
19
100
AcDbEntity
  8
1
 62
     0
 48
0.2
100
AcDbLine
 10
375.0985740630735
 20
289.4946145678864
 30
0.0
 11
355.0985740630736
 21
289.4946145678864
 31
0.0
  0
LINE
  5
1624D
330
19
100
AcDbEntity
  8
1
 62
     0
 48
0.2
100
AcDbLine
 10
355.0985740630736
 20
285.6946145678865
 30
0.0
 11
375.0985740630735
 21
285.6946145678865
 31
0.0
  0
LINE
  5
1624E
330
19
100
AcDbEntity
  8
1
 62
     0
 48
0.2
100
AcDbLine
 10
352.5985740630736
 20
283.6946145678864
 30
0.0
 11
355.0985740630735
 21
285.6946145678865
 31
0.0
  0
LINE
  5
1624F
330
19
100
AcDbEntity
  8
1
 62
     0
 48
0.2
100
AcDbLine
 10
360.809100378863
 20
284.8946145678864
 30
0.0
 11
359.388047747284
 21
290.2946145678864
 31
0.0
  0
LINE
  5
16250
330
19
100
AcDbEntity
  8
1
 62
     0
 48
0.2
100
AcDbLine
 10
358.809100378863
 20
284.8946145678864
 30
0.0
 11
357.3880477472841
 21
290.2946145678864
 31
0.0
  0
LINE
  5
16251
330
19
100
AcDbEntity
  8
1
 62
     0
 48
0.2
100
AcDbLine
 10
356.8091003788631
 20
284.8946145678864
 30
0.0
 11
355.388047747284
 21
290.2946145678864
 31
0.0
  0
LINE
  5
16252
330
19
100
AcDbEntity
  8
1
 62
     0
 48
0.2
100
AcDbLine
 10
362.809100378863
 20
284.8946145678864
 30
0.0
 11
361.388047747284
 21
290.2946145678864
 31
0.0
  0
LINE
  5
16253
330
19
100
AcDbEntity
  8
1
 62
     0
 48
0.2
100
AcDbLine
 10
364.809100378863
 20
284.8946145678864
 30
0.0
 11
363.388047747284
 21
290.2946145678864
 31
0.0
  0
LINE
  5
16254
330
19
100
AcDbEntity
  8
1
 62
     0
 48
0.2
100
AcDbLine
 10
378.4970955274025
 20
286.0802330034363
 30
0.0
 11
377.6156237895542
 21
289.4298256072604
 31
0.0
  0
LINE
  5
16255
330
19
100
AcDbEntity
  8
1
 62
     0
 48
0.2
100
AcDbLine
 10
380.3187811600372
 20
287.5946145678864
 30
0.0
 11
375.0985740630735
 21
289.4946145678864
 31
0.0
  0
LINE
  5
16256
330
19
100
AcDbEntity
  8
1
 62
     0
 48
0.2
100
AcDbLine
 10
380.3187811600372
 20
287.5946145678864
 30
0.0
 11
375.0985740630735
 21
285.6946145678865
 31
0.0
  0
LINE
  5
16257
330
19
100
AcDbEntity
  8
1
 62
     0
 48
0.2
100
AcDbLine
 10
372.809100378863
 20
284.8946145678864
 30
0.0
 11
371.388047747284
 21
290.2946145678864
 31
0.0
  0
LINE
  5
16258
330
19
100
AcDbEntity
  8
1
 62
     0
 48
0.2
100
AcDbLine
 10
370.809100378863
 20
284.8946145678864
 30
0.0
 11
369.388047747284
 21
290.2946145678864
 31
0.0
  0
LINE
  5
16259
330
19
100
AcDbEntity
  8
1
 62
     0
 48
0.2
100
AcDbLine
 10
368.809100378863
 20
284.8946145678864
 30
0.0
 11
367.3880477472841
 21
290.2946145678864
 31
0.0
  0
LINE
  5
1625A
330
19
100
AcDbEntity
  8
1
 62
     0
 48
0.2
100
AcDbLine
 10
376.6719143727779
 20
285.4159213910094
 30
0.0
 11
375.4037686782299
 21
290.2348750302919
 31
0.0
  0
LINE
  5
1625B
330
19
100
AcDbEntity
  8
1
 62
     0
 48
0.2
100
AcDbLine
 10
374.5985740630735
 20
285.6946145678865
 30
0.0
 11
373.388047747284
 21
290.2946145678864
 31
0.0
  0
LINE
  5
1625C
330
19
100
AcDbEntity
  8
3
 62
     0
100
AcDbLine
 10
352.5985740630736
 20
292.3432267490203
 30
0.0
 11
352.5985740630736
 21
266.2446145678862
 31
0.0
1001
ACAD
1000
ASC_BOUNDS
1002
{
1070
    19
1005
166E2
1002
}
  0
LINE
  5
1625D
330
19
100
AcDbEntity
  8
3
 62
     0
100
AcDbLine
 10
355.0985740630735
 20
292.2946145678862
 30
0.0
 11
355.0985740630736
 21
277.7903261047567
 31
0.0
1001
ACAD
1000
ASC_BOUNDS
1002
{
1070
    19
1005
166E2
1005
168D7
1002
}
  0
LINE
  5
1625F
330
19
100
AcDbEntity
  8
3
 62
     0
100
AcDbLine
 10
362.0985740630735
 20
275.2946145678865
 30
0.0
 11
362.0985740630787
 21
295.2946145678865
 31
0.0
1001
ACAD
1000
ASC_BOUNDS
1002
{
1070
    19
1005
168D7
1002
}
  0
LINE
  5
16260
330
19
100
AcDbEntity
  8
3
 62
     0
100
AcDbLine
 10
352.6825489159045
 20
292.620576847133
 30
0.0
 11
355.4784171219105
 21
296.8143791561418
 31
0.0
1001
ACAD
1000
ASC_BOUNDS
1002
{
1070
    19
1005
166E2
1002
}
  0
ARC
  5
16261
330
19
100
AcDbEntity
  8
1
 62
     0
100
AcDbCircle
 10
353.0985740630736
 20
292.3432267490203
 30
0.0
 40
0.5
100
AcDbArc
 50
146.309932474022
 51
180.0
1001
ACAD
1000
ASC_BOUNDS
1002
{
1070
    19
1005
166E2
1002
}
  0
LINE
  5
16262
330
19
100
AcDbEntity
  8
3
 62
     0
100
AcDbLine
 10
356.2985740630736
 20
295.2946145678865
 30
0.0
 11
355.0985740630735
 21
292.2946145678865
 31
0.0
1001
ACAD
1000
ASC_BOUNDS
1002
{
1070
    19
1005
166E2
1005
168D7
1002
}
  0
LINE
  5
16263
330
19
100
AcDbEntity
  8
3
 62
     0
100
AcDbLine
 10
356.2985740630736
 20
295.2946145678865
 30
0.0
 11
362.0985740630787
 21
295.2946145678865
 31
0.0
1001
ACAD
1000
ASC_BOUNDS
1002
{
1070
    19
1005
166E2
1005
168D7
1002
}
  0
ARC
  5
16264
330
19
100
AcDbEntity
  8
3
 62
     0
100
AcDbCircle
 10
355.8944422690794
 20
296.5370290580292
 30
0.0
 40
0.5
100
AcDbArc
 50
99.46232220802777
 51
146.3099324740211
1001
ACAD
1000
ASC_BOUNDS
1002
{
1070
    19
1005
166E2
1002
}
  0
LINE
  5
16265
330
19
100
AcDbEntity
  8
3
 62
     0
100
AcDbLine
 10
358.5985740630736
 20
297.4946145678864
 30
0.0
 11
355.8122427754268
 21
297.0302260199453
 31
0.0
1001
ACAD
1000
ASC_BOUNDS
1002
{
1070
    19
1005
166E2
1002
}
  0
LINE
  5
16266
330
19
100
AcDbEntity
  8
3
 62
     0
100
AcDbLine
 10
358.5985740630787
 20
295.2946145678865
 30
0.0
 11
358.5985740630736
 21
297.4946145678864
 31
0.0
1001
ACAD
1000
ASC_BOUNDS
1002
{
1070
    19
1005
166E2
1002
}
  0
LINE
  5
16267
330
19
100
AcDbEntity
  8
3
 62
     0
100
AcDbLine
 10
359.0985740630734
 20
264.4946145678864
 30
0.0
 11
359.0985740630734
 21
275.2946145678865
 31
0.0
1001
ACAD
1000
ASC_BOUNDS
1002
{
1070
    19
1002
}
  0
LINE
  5
16268
330
19
100
AcDbEntity
  8
3
 62
     0
100
AcDbLine
 10
357.0985740630736
 20
275.2946145678865
 30
0.0
 11
362.0985740630735
 21
275.2946145678865
 31
0.0
1001
ACAD
1000
ASC_BOUNDS
1002
{
1070
    19
1005
168D7
1002
}
  0
LINE
  5
16269
330
19
100
AcDbEntity
  8
3
 62
     0
100
AcDbLine
 10
352.5985740630736
 20
266.2446145678863
 30
0.0
 11
355.0985740630736
 21
266.2446145678863
 31
0.0
1001
ACAD
1000
ASC_BOUNDS
1002
{
1070
    19
1005
166E2
1002
}
  0
LINE
  5
1626A
330
19
100
AcDbEntity
  8
3
 62
     0
100
AcDbLine
 10
352.5985740630736
 20
266.2446145678863
 30
0.0
 11
352.5985740630736
 21
264.4946145678864
 31
0.0
  0
LWPOLYLINE
  5
1626B
330
19
100
AcDbEntity
  8
3
 62
     0
100
AcDbPolyline
 90
        8
 70
     1
 43
0.0
 10
357.0985740630735
 20
289.9846265391722
 10
355.0985740630735
 20
289.9846265391722
 10
355.0985740630735
 20
264.4946145678864
 10
324.5985740630735
 20
264.4946145678864
 10
324.5985740630735
 20
262.4946145678864
 10
347.0985740630734
 20
262.4946145678864
 10
347.0985740630734
 20
263.4946145678864
 10
357.0985740630736
 20
263.4946145678864
1001
ACAD
1000
ASC_BOUNDS
1002
{
1070
    19
1005
166E2
1005
168D7
1002
}
  0
LINE
  5
1627F
330
19
100
AcDbEntity
  8
3
 62
     0
100
AcDbLine
 10
347.0985740630734
 20
167.4946145678862
 30
0.0
 11
347.0985740630734
 21
262.4946145678864
 31
0.0
  0
LINE
  5
16465
330
19
100
AcDbEntity
  8
1
 62
     0
 48
0.5
100
AcDbLine
 10
358.5985740630787
 20
138.3946145678861
 30
0.0
 11
358.5985740630787
 21
146.3946145678861
 31
0.0
  0
LINE
  5
16467
330
19
100
AcDbEntity
  8
1
 62
     0
 48
0.5
100
AcDbLine
 10
358.5985740630787
 20
146.3946145678861
 30
0.0
 11
355.0985740630735
 21
146.3946145678861
 31
0.0
  0
LINE
  5
16468
330
19
100
AcDbEntity
  8
1
 62
     0
 48
0.5
100
AcDbLine
 10
358.5985740630787
 20
138.3946145678861
 30
0.0
 11
355.0985740630735
 21
138.3946145678861
 31
0.0
  0
LWPOLYLINE
  5
16475
330
19
100
AcDbEntity
  8
1
 62
     0
 48
4.0
100
AcDbPolyline
 90
        4
 70
     1
 43
0.0
 10
233.3585995971264
 20
145.9946145678866
 42
0.0101648654096093
 10
233.3585995971255
 20
283.9946145678864
 42
0.0101648654096092
 10
95.35859959712803
 20
283.9946145678864
 42
0.0101648654096094
 10
95.35859959712594
 20
145.9946145678851
 42
0.0101648654096093
  0
LINE
  5
164A1
330
19
100
AcDbEntity
  8
1
 62
     0
 48
0.5
100
AcDbLine
 10
358.5985740630787
 20
291.5946145678863
 30
0.0
 11
358.5985740630787
 21
283.5946145678862
 31
0.0
  0
LINE
  5
164A2
330
19
100
AcDbEntity
  8
1
 62
     0
 48
0.5
100
AcDbLine
 10
358.5985740630787
 20
283.5946145678862
 30
0.0
 11
355.0985740630735
 21
283.5946145678862
 31
0.0
  0
LINE
  5
164A3
330
19
100
AcDbEntity
  8
1
 62
     0
 48
0.5
100
AcDbLine
 10
358.5985740630787
 20
291.5946145678863
 30
0.0
 11
355.0985740630735
 21
291.5946145678863
 31
0.0
  0
LEADER
  5
164A4
330
19
100
AcDbEntity
  8
1
 62
     0
100
AcDbLeader
  3
KIHONN
 73
     0
 74
     0
 75
     1
 40
4.5
 41
20.10000000000001
 76
     3
 10
322.0985740630736
 20
238.3946145678848
 30
0.0
 10
354.6045886486343
 20
223.7387215456464
 30
0.0
 10
357.6045886486343
 20
223.7387215456464
 30
0.0
  0
MTEXT
  5
164A5
330
19
100
AcDbEntity
  8
1
 62
     0
100
AcDbMText
 10
359.1045886486343
 20
225.2387215456464
 30
0.0
 40
4.5
 41
0.0
 71
     7
 72
     5
  1
\U+30e1\U+30c3\U+30b7\U+30e5
  7
EXTFONT
 73
     1
 44
1.0
  0
LEADER
  5
164A6
330
19
100
AcDbEntity
  8
1
 62
     0
100
AcDbLeader
  3
KIHONN
 73
     0
 74
     0
 75
     1
 40
4.5
 41
15.0
 76
     3
 10
299.9023348071034
 20
155.1122281270787
 30
0.0
 10
306.9183524508612
 20
125.8940299995991
 30
0.0
 10
309.9183524508612
 20
125.8940299995991
 30
0.0
  0
MTEXT
  5
164A7
330
19
100
AcDbEntity
  8
1
 62
     0
100
AcDbMText
 10
311.4183524508612
 20
127.3940299995992
 30
0.0
 40
4.5
 41
0.0
 71
     7
 72
     5
  1
\U+65ad\U+71b1\U+6750
  7
EXTFONT
 73
     1
 44
1.0
  0
LINE
  5
164A8
330
19
100
AcDbEntity
  8
1
 62
     0
100
AcDbLine
 10
82.35859959712611
 20
295.4946145678862
 30
0.0
 11
82.35859959712611
 21
134.4946145678862
 31
0.0
  0
LINE
  5
164AA
330
19
100
AcDbEntity
  8
1
 62
     0
100
AcDbLine
 10
83.85859959712604
 20
132.9946145678861
 30
0.0
 11
244.8585995971261
 21
132.9946145678861
 31
0.0
  0
LINE
  5
164AC
330
19
100
AcDbEntity
  8
1
 62
     0
100
AcDbLine
 10
246.3585995971261
 20
134.4946145678862
 30
0.0
 11
246.3585995971261
 21
295.4946145678862
 31
0.0
  0
LINE
  5
164AE
330
19
100
AcDbEntity
  8
1
 62
     0
100
AcDbLine
 10
244.8585995971261
 20
296.9946145678862
 30
0.0
 11
83.85859959712604
 21
296.9946145678862
 31
0.0
  0
LINE
  5
1663E
330
19
100
AcDbEntity
  8
3
 62
     0
100
AcDbLine
 10
352.0985740630735
 20
138.4946145678861
 30
0.0
 11
352.0985740630735
 21
146.2946145678861
 31
0.0
1001
ACAD
1000
ASC_BOUNDS
1002
{
1070
    19
1002
}
  0
LINE
  5
1663F
330
19
100
AcDbEntity
  8
3
 62
     0
100
AcDbLine
 10
352.5985740630736
 20
146.4946145678861
 30
0.0
 11
352.0985740630735
 21
146.2946145678861
 31
0.0
  0
LINE
  5
16640
330
19
100
AcDbEntity
  8
3
 62
     0
100
AcDbLine
 10
352.5985740630736
 20
138.2946145678861
 30
0.0
 11
352.0985740630735
 21
138.4946145678861
 31
0.0
  0
ARC
  5
16642
330
19
100
AcDbEntity
  8
3
 62
     0
100
AcDbCircle
 10
359.2035740630736
 20
142.3946145678861
 30
0.0
 40
8.105000000000067
100
AcDbArc
 50
151.2372108178188
 51
208.762789182181
  0
LINE
  5
16643
330
19
100
AcDbEntity
  8
1
 62
     0
 48
0.5
100
AcDbLine
 10
357.7985740630735
 20
144.2946145678861
 30
0.0
 11
355.0985740630736
 21
144.2946145678861
 31
0.0
  0
LINE
  5
16644
330
19
100
AcDbEntity
  8
1
 62
     0
 48
0.5
100
AcDbLine
 10
357.7985740630735
 20
140.4946145678862
 30
0.0
 11
355.0985740630735
 21
140.4946145678862
 31
0.0
  0
LINE
  5
16647
330
19
100
AcDbEntity
  8
1
 62
     0
 48
0.5
100
AcDbLine
 10
352.5985740630736
 20
139.6446145678861
 30
0.0
 11
355.0985740630735
 21
140.4946145678862
 31
0.0
  0
LINE
  5
16648
330
19
100
AcDbEntity
  8
1
 62
     0
 48
0.5
100
AcDbLine
 10
352.5985740630736
 20
145.1446145678861
 30
0.0
 11
355.0985740630735
 21
144.2946145678861
 31
0.0
  0
LINE
  5
16649
330
19
100
AcDbEntity
  8
1
 62
     0
 48
0.5
100
AcDbLine
 10
357.7985740630735
 20
140.4946145678862
 30
0.0
 11
357.7985740630735
 21
144.2946145678861
 31
0.0
1001
ACAD
1000
ASC_BOUNDS
1002
{
1070
    19
1002
}
  0
LINE
  5
1664A
330
19
100
AcDbEntity
  8
1
 62
     0
100
AcDbLine
 10
363.5985740630787
 20
142.394614567886
 30
0.0
 11
347.5985740630735
 21
142.394614567886
 31
0.0
  0
LEADER
  5
1664C
330
19
100
AcDbEntity
  8
1
 62
     0
100
AcDbLeader
  3
KIHONN
 73
     0
 74
     0
 75
     1
 40
4.5
 41
36.30000000000001
 76
     3
 10
366.0985740630735
 20
287.5946145678864
 30
0.0
 10
380.2146149316113
 20
274.5381182033685
 30
0.0
 10
383.2146149316113
 20
274.5381182033685
 30
0.0
  0
MTEXT
  5
1664D
330
19
100
AcDbEntity
  8
1
 62
     0
100
AcDbMText
 10
384.7146149316113
 20
276.0381182033685
 30
0.0
 40
4.5
 41
0.0
 71
     7
 72
     5
  1
\U+30d3\U+30b9\U+7559\U+3081\U+306e\U+5834\U+5408
  7
EXTFONT
 73
     1
 44
1.0
  0
INSERT
  5
166B5
330
19
100
AcDbEntity
  8
1
 62
     0
100
AcDbBlockReference
  2
*X7
 10
21.73287576298549
 20
0.0
 30
0.0
1001
ACAD
1000
HATCH
1002
{
1070
    19
1000
_U
1040
1.5
1040
5.497787143782137
1070
     0
1002
}
  0
INSERT
  5
166E2
330
19
100
AcDbEntity
  8
1
 62
     0
100
AcDbBlockReference
  2
*X8
 10
21.73287576298549
 20
0.0
 30
0.0
1001
ACAD
1000
HATCH
1002
{
1070
    19
1000
_U
1040
1.5
1040
0.7853981633974483
1070
     0
1000
ASC_BOUNDS
1070
     1
1070
     1
1070
    11
1005
1625D
1005
16262
1005
16263
1005
16266
1005
16265
1005
16264
1005
16260
1005
16261
1005
1625C
1005
16269
1005
1626B
1000
ASC_SEEDPOINT
1011
353.8485740630735
1021
281.2040100546566
1031
0.0
1002
}
  0
INSERT
  5
166F5
330
19
100
AcDbEntity
  8
1
 62
     0
100
AcDbBlockReference
  2
*X9
 10
21.73287576298549
 20
0.0
 30
0.0
1001
ACAD
1000
HATCH
1002
{
1070
    19
1000
_U
1040
1.5
1040
0.7853981633974483
1070
     0
1000
ASC_BOUNDS
1070
     1
1070
     2
1070
     1
1005
12E6A
1000
ASC_SEEDPOINT
1011
325.6538972020646
1021
261.4946145678862
1031
0.0
1002
}
  0
INSERT
  5
167BF
330
19
100
AcDbEntity
  8
1
 62
     0
100
AcDbBlockReference
  2
*X10
 10
21.73287576298549
 20
0.0
 30
0.0
1001
ACAD
1000
HATCH
1002
{
1070
    19
1000
_U
1040
1.5
1040
5.497787143782137
1070
     0
1000
ASC_BOUNDS
1070
     1
1070
     1
1070
     2
1005
15702
1005
1570D
1000
ASC_SEEDPOINT
1011
326.1713774653399
1021
166.4946145678862
1031
0.0
1002
}
  0
INSERT
  5
1687D
330
19
100
AcDbEntity
  8
1
 62
     0
100
AcDbBlockReference
  2
*X11
 10
21.73287576298549
 20
0.0
 30
0.0
1001
ACAD
1000
HATCH
1002
{
1070
    19
1000
_U
1040
1.5
1040
0.7853981633974483
1070
     0
1000
ASC_BOUNDS
1070
     1
1070
     1
1070
     1
1005
1570D
1000
ASC_SEEDPOINT
1011
334.4772736929273
1021
168.4946145678861
1031
0.0
1002
}
  0
CIRCLE
  5
168B5
330
19
100
AcDbEntity
  8
1
 62
     0
 48
4.0
100
AcDbCircle
 10
164.358599597126
 20
214.9946145678862
 30
0.0
 40
49.5
  0
CIRCLE
  5
168B6
330
19
100
AcDbEntity
  8
1
 62
     0
 48
4.0
100
AcDbCircle
 10
164.358599597126
 20
214.9946145678862
 30
0.0
 40
47.5
  0
INSERT
  5
168D7
330
19
100
AcDbEntity
  8
1
 62
     0
100
AcDbBlockReference
  2
*X12
 10
21.73287576298549
 20
0.0
 30
0.0
1001
ACAD
1000
HATCH
1002
{
1070
    19
1000
HEX
1040
0.6
1040
0.0
1000
ASC_BOUNDS
1070
     1
1070
     1
1070
     6
1005
16263
1005
16262
1005
1625D
1005
1626B
1005
16268
1005
1625F
1000
ASC_SEEDPOINT
1011
360.4551664534088
1021
288.0049442254513
1031
0.0
1002
}
  0
INSERT
  5
16926
330
19
100
AcDbEntity
  8
1
 62
     0
100
AcDbBlockReference
  2
*X13
 10
21.73287576298549
 20
0.0
 30
0.0
1001
ACAD
1000
HATCH
1002
{
1070
    19
1000
_U
1040
1.5
1040
0.7853981633974483
1070
     0
1000
ASC_BOUNDS
1070
     1
1070
     1
1070
    11
1005
15702
1005
156E2
1005
156E1
1005
1611F
1005
15F01
1005
16126
1005
16125
1005
156DE
1005
156F0
1005
15EA5
1005
15CFD
1000
ASC_SEEDPOINT
1011
353.8485740630735
1021
147.5608284103992
1031
0.0
1002
}
  0
LINE
  5
16947
330
19
100
AcDbEntity
  8
1
 62
     0
100
AcDbLine
 10
339.6657597014849
 20
139.6273028810375
 30
0.0
 11
337.6325177458094
 21
132.3359949506755
 31
0.0
  0
SOLID
  5
1696A
330
19
100
AcDbEntity
  8
1
 62
     0
100
AcDbTrace
 10
336.3450632043848
 20
129.5805529164884
 30
0.0
 11
337.3083122177117
 21
129.3119429049014
 31
0.0
 12
337.6325177458094
 22
132.3359949506755
 32
0.0
 13
337.6325177458094
 23
132.3359949506755
 33
0.0
  0
SOLID
  5
1696B
330
19
100
AcDbEntity
  8
1
 62
     0
100
AcDbTrace
 10
338.4939432970813
 20
137.286545023104
 30
0.0
 11
339.4571923104082
 21
137.0179350115169
 31
0.0
 12
338.1697377689836
 22
134.2624929773298
 32
0.0
 13
338.1697377689836
 23
134.2624929773298
 33
0.0
  0
LINE
  5
1696C
330
19
100
AcDbEntity
  8
1
 62
     0
100
AcDbLine
 10
329.5434475830638
 20
134.5916995505059
 30
0.0
 11
339.0773912657996
 21
131.933079933295
 31
0.0
  0
LINE
  5
1696D
330
19
100
AcDbEntity
  8
1
 62
     0
100
AcDbLine
 10
330.0806676062379
 20
136.5181975771597
 30
0.0
 11
339.6146112889738
 21
133.8595779599488
 31
0.0
  0
MTEXT
  5
1696E
330
19
100
AcDbEntity
  8
1
 62
     0
100
AcDbMText
 10
335.3633840037689
 20
138.1595275607615
 30
0.0
 40
4.5
 41
0.0
 71
     5
 72
     5
  1
\A1;2
  7
EXTFONT
 11
0.2686100115870378
 21
0.9632490133268818
 31
0.0
 73
     1
 44
1.0
  0
POINT
  5
1696F
330
19
100
AcDbEntity
  8
DEFPOINTS
 62
     0
100
AcDbPoint
 10
328.0985740630734
 20
134.9946145678864
 30
0.0
  0
POINT
  5
16970
330
19
100
AcDbEntity
  8
DEFPOINTS
 62
     0
100
AcDbPoint
 10
328.6357940862476
 20
136.9211125945402
 30
0.0
  0
INSERT
  5
169F7
330
19
100
AcDbEntity
  8
1
 62
     0
100
AcDbBlockReference
  2
*X14
 10
21.73287576298549
 20
0.0
 30
0.0
1001
ACAD
1000
HATCH
1002
{
1070
    19
1000
_U
1040
1.5
1040
11.65171845513584
1070
     0
1000
ASC_BOUNDS
1070
     1
1070
     1
1070
    13
1005
13353
1005
13354
1005
133D6
1005
13375
1005
133E9
1005
133E6
1005
1350B
1005
133E4
1005
133FE
1005
13400
1005
13377
1005
133D7
1005
13376
1000
ASC_SEEDPOINT
1011
292.0243112141349
1021
234.5828063160455
1031
0.0
1002
}
  0
DIMENSION
  5
16A66
330
19
100
AcDbEntity
  8
1
 62
     0
100
AcDbDimension
  2
*D15
 10
328.0985740630736
 20
113.7389154622333
 30
0.0
 11
309.3485740630711
 21
117.4889154622333
 31
0.0
 70
    32
 71
     5
 42
37.50000000000517
  3
KIHONN
100
AcDbAlignedDimension
 13
290.5985740630685
 23
214.9946145678863
 33
0.0
 14
328.0985740630736
 24
134.9946145678865
 34
0.0
100
AcDbRotatedDimension
  0
CIRCLE
  5
16A83
330
19
100
AcDbEntity
  8
1
 62
     0
100
AcDbCircle
 10
236.9585995971263
 20
287.5946145678863
 30
0.0
 40
1.9
  0
CIRCLE
  5
16A84
330
19
100
AcDbEntity
  8
1
 62
     0
100
AcDbCircle
 10
91.75859959712585
 20
287.5946145678864
 30
0.0
 40
1.9
  0
CIRCLE
  5
16A85
330
19
100
AcDbEntity
  8
1
 62
     0
100
AcDbCircle
 10
91.75859959712582
 20
142.394614567886
 30
0.0
 40
1.9
  0
CIRCLE
  5
16A86
330
19
100
AcDbEntity
  8
1
 62
     0
100
AcDbCircle
 10
236.9585995971262
 20
142.3946145678859
 30
0.0
 40
1.9
  0
INSERT
  5
16A9E
330
19
100
AcDbEntity
  8
1
 62
     0
100
AcDbBlockReference
  2
*X16
 10
21.73287576298549
 20
0.0
 30
0.0
1001
ACAD
1000
HATCH
1002
{
1070
    19
1000
HEX
1040
0.6
1040
0.0
1000
ASC_BOUNDS
1070
     1
1070
     1
1070
     6
1005
156E5
1005
15702
1005
15CFD
1005
15EA5
1005
156F0
1005
156E4
1000
ASC_SEEDPOINT
1011
361.1832142094845
1021
144.7910602219425
1031
0.0
1002
}
  0
TEXT
  5
16AC5
330
19
100
AcDbEntity
  8
1
 62
     0
100
AcDbText
 10
494.7136698677781
 20
58.54591358383207
 30
0.0
 40
4.5
  1
発泡ポリウレタン
 41
0.6
 72
     4
 11
507.1336698677781
 21
60.79591358383208
 31
0.0
100
AcDbText
  0
TEXT
  5
16AC6
330
19
100
AcDbEntity
  8
1
 62
     0
100
AcDbText
 10
467.4635473580122
 20
58.39591358383207
 30
0.0
 40
4.5
  1
断熱材
 72
     4
 11
474.9635473580122
 21
60.79591358383208
 31
0.0
100
AcDbText
  0
LINE
  5
16AC7
330
19
100
AcDbEntity
  8
1
 62
     0
100
AcDbLine
 10
458.8784594028999
 20
47.29591358383209
 30
0.0
 11
458.8784594028994
 21
83.29591358383208
 31
0.0
  0
LINE
  5
16AC8
330
19
100
AcDbEntity
  8
1
 62
     0
100
AcDbLine
 10
491.0486353131249
 20
47.29591358383209
 30
0.0
 11
491.0486353131244
 21
83.29591358383208
 31
0.0
  0
LINE
  5
16AC9
330
19
100
AcDbEntity
  8
1
 62
     0
100
AcDbLine
 10
458.8784594028998
 20
56.29591358383208
 30
0.0
 11
523.2187578228907
 21
56.29591358383208
 31
0.0
  0
LINE
  5
16ACA
330
19
100
AcDbEntity
  8
1
 62
     0
100
AcDbLine
 10
458.8784594028997
 20
65.29591358383211
 30
0.0
 11
523.2187578228907
 21
65.29591358383211
 31
0.0
  0
LINE
  5
16ACB
330
19
100
AcDbEntity
  8
1
 62
     0
100
AcDbLine
 10
458.8784594028997
 20
74.29591358383209
 30
0.0
 11
523.2187578228907
 21
74.29591358383209
 31
0.0
  0
TEXT
  5
16ACC
330
19
100
AcDbEntity
  8
1
 62
     0
100
AcDbText
 10
470.163547358012
 20
67.54591358383208
 30
0.0
 40
4.5
  1
本体
 72
     4
 11
474.963547358012
 21
69.79591358383209
 31
0.0
100
AcDbText
  0
TEXT
  5
16ACD
330
19
100
AcDbEntity
  8
1
 62
     0
100
AcDbText
 10
467.613547358012
 20
76.54591358383207
 30
0.0
 40
4.5
  1
部品名
 72
     4
 11
474.963547358012
 21
78.79591358383208
 31
0.0
100
AcDbText
  0
TEXT
  5
16ACE
330
19
100
AcDbEntity
  8
1
 62
     0
100
AcDbText
 10
502.1336698677782
 20
65.67091358383208
 30
0.0
 40
3.75
  1
2mm
 72
     4
 11
507.1336698677781
 21
67.54591358383208
 31
0.0
100
AcDbText
  0
TEXT
  5
16ACF
330
19
100
AcDbEntity
  8
1
 62
     0
100
AcDbText
 10
498.5836698677781
 20
70.17091358383208
 30
0.0
 40
3.75
  1
ASA樹脂(白)
 41
0.6
 72
     4
 11
507.1336698677781
 21
72.04591358383208
 31
0.0
100
AcDbText
  0
TEXT
  5
16AD0
330
19
100
AcDbEntity
  8
1
 62
     0
100
AcDbText
 10
502.333669867778
 20
76.54591358383207
 30
0.0
 40
4.5
  1
材質
 72
     4
 11
507.1336698677781
 21
78.79591358383208
 31
0.0
100
AcDbText
  0
TEXT
  5
16AD1
330
19
100
AcDbEntity
  8
1
 62
     0
100
AcDbText
 10
360.4603842891407
 20
42.46536639461127
 30
0.0
 40
4.2
  1
換気面積
 11
360.4603842891407
 21
42.46536639461127
 31
0.0
100
AcDbText
 73
     1
  0
LINE
  5
16AD2
330
19
100
AcDbEntity
  8
5
 62
     0
100
AcDbLine
 10
359.8556831130559
 20
34.92277901553258
 30
0.0
 11
359.8556831130559
 21
47.29591358383209
 31
0.0
  0
LINE
  5
16AD3
330
19
100
AcDbEntity
  8
1
 62
     0
100
AcDbLine
 10
458.8784594028996
 20
83.29591358383208
 30
0.0
 11
523.2187578228905
 21
83.29591358383208
 31
0.0
  0
TEXT
  5
16AD4
330
19
100
AcDbEntity
  8
1
 62
     0
100
AcDbText
 10
465.0635473580122
 20
49.99591358383206
 30
0.0
 40
4.5
  1
メッシュ
 72
     4
 11
474.9635473580123
 21
51.79591358383206
 31
0.0
100
AcDbText
  0
TEXT
  5
16ADA
330
19
100
AcDbEntity
  8
1
 62
     0
100
AcDbText
 10
23.73581559719214
 20
29.97352637114446
 30
0.0
 40
4.19958
  1
工事名
 11
23.73581559719214
 21
29.97352637114446
 31
0.0
100
AcDbText
 73
     1
  0
LEADER
  5
16AE4
330
19
100
AcDbEntity
  8
1
 62
     0
100
AcDbLeader
  3
KIHONN
 73
     0
 74
     0
 75
     1
 40
4.5
 41
30.60000000000001
 76
     3
 10
360.4555574963442
 20
147.298000785205
 30
0.0
 10
374.7288497896002
 20
153.7502381239777
 30
0.0
 10
377.7288497896002
 20
153.7502381239777
 30
0.0
  0
MTEXT
  5
16AE5
330
19
100
AcDbEntity
  8
1
 62
     0
100
AcDbMText
 10
379.2288497896002
 20
155.2502381239777
 30
0.0
 40
4.5
 41
0.0
 71
     7
 72
     5
  1
\U+65ad\U+71b1\U+6750(4\U+5468)
  7
EXTFONT
 73
     1
 44
1.0
  0
TEXT
  5
16AEA
330
19
100
AcDbEntity
  8
1
 62
     0
100
AcDbText
 10
496.8211698677781
 20
52.17091358383207
 30
0.0
 40
3.75
  1
SUS304
 72
     4
 11
507.1336698677781
 21
54.04591358383207
 31
0.0
100
AcDbText
  0
TEXT
  5
16AEB
330
19
100
AcDbEntity
  8
1
 62
     0
100
AcDbText
 10
496.0086698677781
 20
47.67091358383207
 30
0.0
 40
3.75
  1
16メッシュ
 72
     4
 11
507.1336698677781
 21
49.54591358383208
 31
0.0
100
AcDbText
  0
LINE
  5
16AFB
330
19
100
AcDbEntity
  8
3
 62
     0
100
AcDbLine
 10
432.0985740630734
 20
165.4946145678861
 30
0.0
 11
432.0985740630734
 21
264.4946145678864
 31
0.0
1001
ACAD
1000
ASC_BOUNDS
1002
{
1070
    19
1005
16B2F
1005
16B69
1002
}
  0
LWPOLYLINE
  5
16AFC
330
19
100
AcDbEntity
  8
3
 62
     0
100
AcDbPolyline
 90
        5
 70
     0
 43
0.0
 10
357.0985740630736
 20
165.4946145678861
 10
357.0985740630736
 20
166.4946145678862
 10
347.0985740630734
 20
166.4946145678862
 10
347.0985740630734
 20
167.4946145678862
 10
432.0985740630734
 20
167.4946145678861
1001
ACAD
1000
ASC_BOUNDS
1002
{
1070
    19
1005
16742
1005
16B69
1002
}
  0
LWPOLYLINE
  5
16B03
330
19
100
AcDbEntity
  8
3
 62
     0
100
AcDbPolyline
 90
        2
 70
     0
 43
0.0
 10
432.0985740630734
 20
165.4946145678861
 10
357.0985740630736
 20
165.4946145678861
1001
ACAD
1000
ASC_BOUNDS
1002
{
1070
    19
1005
16742
1005
16B69
1002
}
  0
LWPOLYLINE
  5
16B07
330
19
100
AcDbEntity
  8
3
 62
     0
100
AcDbPolyline
 90
        5
 70
     0
 43
0.0
 10
357.0985740630736
 20
264.4946145678864
 10
357.0985740630736
 20
263.4946145678864
 10
347.0985740630734
 20
263.4946145678864
 10
347.0985740630734
 20
262.4946145678864
 10
432.0985740630734
 20
262.4946145678864
1001
ACAD
1000
ASC_BOUNDS
1002
{
1070
    19
1005
1665B
1005
166B5
1005
16B2F
1002
}
  0
LWPOLYLINE
  5
16B1B
330
19
100
AcDbEntity
  8
3
 62
     0
100
AcDbPolyline
 90
        2
 70
     0
 43
0.0
 10
432.0985740630734
 20
264.4946145678864
 10
357.0985740630736
 20
264.4946145678864
1001
ACAD
1000
ASC_BOUNDS
1002
{
1070
    19
1005
1665B
1005
166B5
1005
16B2F
1002
}
  0
INSERT
  5
16B2F
330
19
100
AcDbEntity
  8
1
 62
     0
100
AcDbBlockReference
  2
*X17
 10
21.73287576298549
 20
0.0
 30
0.0
1001
ACAD
1000
HATCH
1002
{
1070
    19
1000
_U
1040
1.5
1040
0.7853981633974483
1070
     0
1000
ASC_BOUNDS
1070
     1
1070
     1
1070
     3
1005
16B1B
1005
16B07
1005
16AFB
1000
ASC_SEEDPOINT
1011
381.3282717247514
1021
263.5302616881483
1031
0.0
1002
}
  0
INSERT
  5
16B69
330
19
100
AcDbEntity
  8
1
 62
     0
100
AcDbBlockReference
  2
*X18
 10
21.73287576298549
 20
0.0
 30
0.0
1001
ACAD
1000
HATCH
1002
{
1070
    19
1000
_U
1040
1.5
1040
0.7853981633974483
1070
     0
1000
ASC_BOUNDS
1070
     1
1070
     1
1070
     3
1005
16AFC
1005
16B03
1005
16AFB
1000
ASC_SEEDPOINT
1011
396.4609115249625
1021
166.3133455816654
1031
0.0
1002
}
  0
DIMENSION
  5
16BFE
330
19
100
AcDbEntity
  8
1
 62
     0
100
AcDbDimension
  2
*D19
 10
452.4389535067203
 20
165.4946145678861
 30
0.0
 11
448.6889535067202
 21
148.9946145678862
 31
0.0
 70
    32
 71
     5
 42
33.00000000000003
  3
KIHONN
100
AcDbAlignedDimension
 13
358.5985740630736
 23
132.4946145678861
 33
0.0
 14
432.0985740630734
 24
165.4946145678861
 34
0.0
 50
90.0
100
AcDbRotatedDimension
  0
DIMENSION
  5
16C0B
330
19
100
AcDbEntity
  8
1
 62
     0
100
AcDbDimension
  2
*D20
 10
452.4389535067203
 20
264.4946145678864
 30
0.0
 11
448.6889535067202
 21
214.9946145678864
 31
0.0
 70
    32
  1
φ<>
 71
     5
 42
99.00000000000032
  3
KIHONN
100
AcDbAlignedDimension
 13
432.0985740630734
 23
165.4946145678861
 33
0.0
 14
432.0985740630734
 24
264.4946145678864
 34
0.0
 50
90.0
100
AcDbRotatedDimension
  0
DIMENSION
  5
16C18
330
19
100
AcDbEntity
  8
1
 62
     0
100
AcDbDimension
  2
*D21
 10
452.4389535067203
 20
297.4946145678863
 30
0.0
 11
448.6889535067202
 21
280.9946145678865
 31
0.0
 70
    32
 71
     5
 42
32.99999999999989
  3
KIHONN
100
AcDbAlignedDimension
 13
432.0985740630734
 23
264.4946145678864
 33
0.0
 14
358.5985740630736
 24
297.4946145678864
 34
0.0
 50
90.0
100
AcDbRotatedDimension
  0
DIMENSION
  5
16C25
330
19
100
AcDbEntity
  8
1
 62
     0
100
AcDbDimension
  2
*D22
 10
432.0985740630734
 20
122.6381580096548
 30
0.0
 11
394.5985740630734
 21
126.3881580096548
 31
0.0
 70
    32
 71
     5
 42
74.99999999999994
  3
KIHONN
100
AcDbAlignedDimension
 13
357.0985740630735
 23
140.0046025966003
 33
0.0
 14
432.0985740630734
 24
165.4946145678861
 34
0.0
100
AcDbRotatedDimension
  0
DIMENSION
  5
16C32
330
19
100
AcDbEntity
  8
1
 62
     0
100
AcDbDimension
  2
*D23
 10
432.0985740630734
 20
112.7846319953872
 30
0.0
 11
389.5985740630734
 21
116.5346319953872
 31
0.0
 70
    32
 71
     5
 42
85.0
  3
KIHONN
100
AcDbAlignedDimension
 13
347.0985740630734
 23
166.4946145678862
 33
0.0
 14
432.0985740630734
 24
165.4946145678861
 34
0.0
100
AcDbRotatedDimension
  0
ENDSEC
  0
SECTION
  2
OBJECTS
  0
DICTIONARY
  5
C
330
0
100
AcDbDictionary
281
     1
  3
ACAD_COLOR
350
16C4A
  3
ACAD_GROUP
350
D
  3
ACAD_LAYOUT
350
16C4D
  3
ACAD_MATERIAL
350
16C49
  3
ACAD_MLINESTYLE
350
E
  3
ACAD_PLOTSETTINGS
350
16C4E
  3
ACAD_PLOTSTYLENAME
350
16C47
  3
ACAD_TABLESTYLE
350
16C4B
  3
AcDbVariableDictionary
350
16D2D
  0
DICTIONARY
  5
16C4A
102
{ACAD_REACTORS
330
C
102
}
330
C
100
AcDbDictionary
281
     1
  0
DICTIONARY
  5
D
102
{ACAD_REACTORS
330
C
102
}
330
C
100
AcDbDictionary
281
     1
  0
DICTIONARY
  5
16C4D
102
{ACAD_REACTORS
330
C
102
}
330
C
100
AcDbDictionary
281
     1
  3
Model
350
16C4F
  3
レイアウト1
350
16C50
  0
DICTIONARY
  5
16C49
102
{ACAD_REACTORS
330
C
102
}
330
C
100
AcDbDictionary
281
     1
  0
DICTIONARY
  5
E
102
{ACAD_REACTORS
330
C
102
}
330
C
100
AcDbDictionary
281
     1
  3
STANDARD
350
1C
  0
DICTIONARY
  5
16C4E
102
{ACAD_REACTORS
330
C
102
}
330
C
100
AcDbDictionary
281
     1
  0
ACDBDICTIONARYWDFLT
  5
16C47
102
{ACAD_REACTORS
330
C
102
}
330
C
100
AcDbDictionary
281
     1
  3
Normal
350
16C48
100
AcDbDictionaryWithDefault
340
16C48
  0
DICTIONARY
  5
16C4B
102
{ACAD_REACTORS
330
C
102
}
330
C
100
AcDbDictionary
281
     1
  3
Standard
350
16C4C
  0
DICTIONARY
  5
16D2D
102
{ACAD_REACTORS
330
C
102
}
330
C
100
AcDbDictionary
281
     1
  3
CTABLESTYLE
350
16D2E
  0
LAYOUT
  5
16C4F
102
{ACAD_REACTORS
330
16C4D
102
}
330
16C4D
100
AcDbPlotSettings
  1

  2
DocuCentre-IV C2260
  4

  6

 40
0.0
 41
0.0
 42
0.0
 43
0.0
 44
0.0
 45
0.0
 46
0.0
 47
0.0
 48
0.0
 49
0.0
140
0.0
141
0.0
142
1.0
143
1.0
 70
  1712
 72
     0
 73
     0
 74
     0
  7

 75
     0
147
1.0
 76
     0
 77
     2
 78
   300
148
0.0
149
0.0
100
AcDbLayout
  1
Model
 70
     1
 71
     0
 10
0.0
 20
0.0
 11
12.0
 21
9.0
 12
0.0
 22
0.0
 32
0.0
 14
0.0
 24
0.0
 34
0.0
 15
0.0
 25
0.0
 35
0.0
146
0.0
 13
0.0
 23
0.0
 33
0.0
 16
1.0
 26
0.0
 36
0.0
 17
0.0
 27
1.0
 37
0.0
 76
     0
330
19
  0
LAYOUT
  5
16C50
102
{ACAD_REACTORS
330
16C4D
102
}
330
16C4D
100
AcDbPlotSettings
  1

  2
DocuCentre-IV C2260
  4

  6

 40
0.0
 41
0.0
 42
0.0
 43
0.0
 44
0.0
 45
0.0
 46
0.0
 47
0.0
 48
0.0
 49
0.0
140
0.0
141
0.0
142
1.0
143
1.0
 70
   688
 72
     0
 73
     0
 74
     5
  7

 75
    16
147
1.0
 76
     0
 77
     2
 78
   300
148
0.0
149
0.0
100
AcDbLayout
  1
レイアウト1
 70
     1
 71
     1
 10
0.0
 20
0.0
 11
12.0
 21
9.0
 12
0.0
 22
0.0
 32
0.0
 14
1.000000000000000E+20
 24
1.000000000000000E+20
 34
1.000000000000000E+20
 15
-1.000000000000000E+20
 25
-1.000000000000000E+20
 35
-1.000000000000000E+20
146
0.0
 13
0.0
 23
0.0
 33
0.0
 16
1.0
 26
0.0
 36
0.0
 17
0.0
 27
1.0
 37
0.0
 76
     0
330
16
  0
MLINESTYLE
  5
1C
102
{ACAD_REACTORS
330
E
102
}
330
E
100
AcDbMlineStyle
  2
STANDARD
 70
     0
  3

 62
     0
 51
90.0
 52
90.0
 71
     2
 49
0.5
 62
   256
  6
BYLAYER
 49
-0.5
 62
   256
  6
BYLAYER
  0
ACDBPLACEHOLDER
  5
16C48
102
{ACAD_REACTORS
330
16C47
102
}
330
16C47
  0
TABLESTYLE
  5
16C4C
102
{ACAD_REACTORS
330
16C4B
102
}
330
16C4B
100
AcDbTableStyle
  3
Standard
 70
     0
 71
     0
 40
0.06
 41
0.06
280
     0
281
     0
  7
STANDARD
140
0.18
170
     2
 62
     0
 63
     7
283
     0
274
    -2
284
     1
 64
     0
275
    -2
285
     1
 65
     0
276
    -2
286
     1
 66
     0
277
    -2
287
     1
 67
     0
278
    -2
288
     1
 68
     0
279
    -2
289
     1
 69
     0
  7
STANDARD
140
0.25
170
     5
 62
     0
 63
     7
283
     0
274
    -2
284
     1
 64
     0
275
    -2
285
     1
 65
     0
276
    -2
286
     1
 66
     0
277
    -2
287
     1
 67
     0
278
    -2
288
     1
 68
     0
279
    -2
289
     1
 69
     0
  7
STANDARD
140
0.18
170
     5
 62
     0
 63
     7
283
     0
274
    -2
284
     1
 64
     0
275
    -2
285
     1
 65
     0
276
    -2
286
     1
 66
     0
277
    -2
287
     1
 67
     0
278
    -2
288
     1
 68
     0
279
    -2
289
     1
 69
     0
  0
DICTIONARYVAR
  5
16D2E
102
{ACAD_REACTORS
330
16D2D
102
}
330
16D2D
100
DictionaryVariables
280
     0
  1
STANDARD
  0
ENDSEC
  0
EOF
